The A-Team

The A-Team (1983)

Action, Adventure, Drama

Full description

NAUTANKI SALA - UNTOUCHED HD CAM - TEAM ICTV EXCLUSIVE

Size 667.542 MB   0 seeders     Added 2013-04-13 02:01:38

Stream torrent
Starting‥ You need BitLord! Get it from BitLord.com
To download or stream you need BitLord. Visit them at BitLord.com
 image 
image 
image 
image 
image 
image

Media Info - 
Video
ID : 224 (0xE0)
Format : MPEG Video
Format version : Version 2
Format profile : Main@Main
Format settings, BVOP : Yes
Format settings, Matrix : Default
Duration : 1h 49mn
Bit rate mode : Variable
Bit rate : 667 Kbps
Maximum bit rate : 9 672 Kbps
Width : 352 pixels
Height : 288 pixels
Display aspect ratio : 4:3
Frame rate : 25.000 fps
Standard : PAL
Color space : YUV
Chroma subsampling : 4:2:0
Bit depth : 8 bits
Scan type : Progressive
Compression mode : Lossy
Bits/(Pixel*Frame) : 0.263
Stream size : 523 MiB (82%)

Audio
ID : 192 (0xC0)
Format : MPEG Audio
Format version : Version 1
Format profile : Layer 2
Duration : 1h 49mn
Bit rate mode : Constant
Bit rate : 128 Kbps
Channel(s) : 2 channels
Sampling rate : 48.0 KHz
Compression mode : Lossy
Delay relative to video : -600ms
Stream size : 100 MiB (16%)

Sharer : TJ_DA_KING

Seeding 24x7... Extreme Seeding...


Enjoy!
		
NAUTANKI SALA - UNTOUCHED HD CAM - TEAM ICTV EXCLUSIVE/VIDEO_TS/VTS_01_1.VOB 667.247 MB
NAUTANKI SALA - UNTOUCHED HD CAM - TEAM ICTV EXCLUSIVE/VIDEO_TS/VTS_01_0.BUP 75.776 KB
NAUTANKI SALA - UNTOUCHED HD CAM - TEAM ICTV EXCLUSIVE/VIDEO_TS/VTS_01_0.IFO 75.776 KB
Gathering some info...

Register and log in Isohunt and see no captcha anymore!

4000 symbols left
Hash 57329fdb26b42f6024c8ad30ce18b5d69affb1f7

Related torrents for "NAUTANKI SALA - UNTOUCHED HD CAM - TEAM ICTV EXCLUSIVE"

Torrent search:

cam hd