Nautanki Saala 2013 [TMB]

Size 370.287 MB   6 seeders     Added 2013-04-13 03:46:37

Stream torrent
Starting‥ You need BitLord! Get it from 1BitLord.com
To download or stream you need BitLord. Visit them at BitLord.com
 image 
image 
image 
image 
image 
image 
image
Video
ID                             : 1
Format                         : AVC
Format/Info                    : Advanced Video Codec
Format profile                 : Main@L1.3
Format settings, CABAC         : Yes
Format settings, ReFrames      : 4 frames
Codec ID                       : avc1
Codec ID/Info                  : Advanced Video Coding
Duration                       : 1h 49mn
Bit rate mode                  : Variable
Bit rate                       : 281 Kbps
Width                          : 352 pixels
Height                         : 172 pixels
Display aspect ratio           : 2.25:1
Frame rate mode                : Variable
Frame rate                     : 25.000 fps
Minimum frame rate             : 1.563 fps
Maximum frame rate             : 25.000 fps
Color space                    : YUV
Chroma subsampling             : 4:2:0
Bit depth                      : 8 bits
Scan type                      : Progressive
Bits/(Pixel*Frame)             : 0.185
Stream size                    : 220 MiB (63%)
Writing library                : x264 core 120
Color primaries                : BT.601 NTSC
Transfer characteristics       : BT.709
Matrix coefficients            : BT.601

Audio
ID                             : 2
Format                         : AAC
Format/Info                    : Advanced Audio Codec
Format profile                 : LC
Codec ID                       : 40
Duration                       : 1h 49mn
Bit rate mode                  : Variable
Bit rate                       : 160 Kbps
Maximum bit rate               : 201 Kbps
Channel(s)                     : 2 channels
Channel positions              : Front: L R
Sampling rate                  : 48.0 KHz
Compression mode               : Lossy
Delay relative to video        : 680ms
Stream size                    : 126 MiB (36%)
Language                       : English
Encoded date                   : UTC 2013-04-12 19:07:42
Tagged date                    : UTC 2013-04-12 19:15:41

[B]Sample in Torrent...[/B]

Ripper : Manojvb

Seeding 24x7... Extreme Seeding...

 
image
		
Nautanki Saala 2013 [TMB]/Nautanki Sala 2013 Untouched Hd Cam[TMB].m4v 366.168 MB
Nautanki Saala 2013 [TMB]/Nautanki Sala 2013 Untouched Hd Cam[TMB]_sample.m4v 4.119 MB
Gathering some info...

Register and log in Isohunt and see no captcha anymore!

4000 symbols left
Hash 9e00114b0b85ebc63e9652f645afd31eb91f8540

Related torrents for "Nautanki Saala 2013 [TMB]"

Torrent search:

2013