Aleksandr Sokurov - The Lonely Voice Of Man [1987]

Size 1.047 GB   0 seeders     Added 2013-04-13 05:31:35

Stream torrent
Starting‚Ä• You need BitLord! Get it from 1BitLord.com
To download or stream you need BitLord. Visit them at BitLord.com
Complete name : The Lonely Voice Of Man [1987]/Aleksandr Sokurov - The Lonely Voice Of Man [1987].avi
Format : AVI
Format/Info : Audio Video Interleave
File size : 998 MiB
Duration : 1h 22mn
Overall bit rate : 1 702 Kbps
Writing application : VirtualDubMod 1.5.4.1 (build 2178/release)
Writing library : VirtualDubMod build 2178/release

Video
ID : 0
Format : MPEG-4 Visual
Format profile : Advanced Simple@L5
Format settings, BVOP : 1
Format settings, QPel : No
Format settings, GMC : No warppoints
Format settings, Matrix : Custom
Codec ID : XVID
Codec ID/Hint : XviD
Duration : 1h 22mn
Bit rate : 1 503 Kbps
Width : 704 pixels
Height : 528 pixels
Display aspect ratio : 4:3
Frame rate : 25.000 fps
Color space : YUV
Chroma subsampling : 4:2:0
Bit depth : 8 bits
Scan type : Progressive
Compression mode : Lossy
Bits/(Pixel*Frame) : 0.162
Stream size : 882 MiB (88%)
Writing library : XviD 1.2.0.dev47 (UTC 2006-11-01)

Audio
ID : 1
Format : AC-3
Format/Info : Audio Coding 3
Mode extension : CM (complete main)
Codec ID : 2000
Duration : 1h 22mn
Bit rate mode : Constant
Bit rate : 192 Kbps
Channel(s) : 2 channels
Channel positions : Front: L R
Sampling rate : 48.0 KHz
Bit depth : 16 bits
Compression mode : Lossy
Stream size : 113 MiB (11%)
Alignment : Split accross interleaves
Interleave, duration : 96 ms (2.40 video frames)
Interleave, preload duration : 96 ms

		
Aleksandr Sokurov - The Lonely Voice Of Man [1987]/Aleksandr Sokurov - The Lonely Voice Of Man [1987].srt 16.981 KB
Aleksandr Sokurov - The Lonely Voice Of Man [1987]/Aleksandr Sokurov - The Lonely Voice Of Man [1987].avi 1.047 GB
Aleksandr Sokurov - The Lonely Voice Of Man [1987]/Aleksandr Sokurov - The Lonely Voice Of Man [1987] - Italian.srt 40.22 KB
Gathering some info...

Register and log in Isohunt and see no captcha anymore!

4000 symbols left
Hash 58861640857eca3fe475f8687120bd18068d7185

Related torrents for "Aleksandr Sokurov - The Lonely Voice Of Man [1987]"

Torrent search:

1987