imdb
rating

5.1
A Haunted House

A Haunted House (2013)

Comedy, Horror

Full description
quality   dvdrip h264 hd cam screener

[ www.Speed.Cd ] - A Haunted House (2013) BRRip XviD-MeRCuRY

Size 734.589 MB   0 seeders     Added 2013-04-13 06:32:35

Stream torrent
Starting‥ You need BitLord! Get it from BitLord.com
To download or stream you need BitLord. Visit them at BitLord.com
-
 
http://www.Speed. Cd       the fast  and The Hottest Private Tracker on the net 
http://www.Speed. Cd

Please Seed back to make the speed Faster!!
 ............ NFO .............
-
 
http://www.Speed. CdGeneral
Complete name                    : C:UsersAdministratorDesktopBeyazHDLBRRRipA Haunted House (2013) BRRip XviD-MeRCuRYA Haunted House (2013) BRRip XviD-MeRCuRY.avi
Format                           : AVI
Format/Info                      : Audio Video Interleave
File size                        : 700 MiB
Duration                         : 1h 26mn
Overall bit rate                 : 1 132 Kbps

Video
ID                               : 0
Format                           : MPEG-4 Visual
Format profile                   : Advanced Simple@L5
Format settings, BVOP            : 2
Format settings, QPel            : Yes
Format settings, GMC             : No warppoints
Format settings, Matrix          : Default (H.263)
Codec ID                         : XVID
Codec ID/Hint                    : XviD
Duration                         : 1h 26mn
Bit rate                         : 998 Kbps
Width                            : 640 pixels
Height                           : 352 pixels
Display aspect ratio             : 16:9
Frame rate                       : 23.976 fps
Color space                      : YUV
Chroma subsampling               : 4:2:0
Bit depth                        : 8 bits
Scan type                        : Progressive
Compression mode                 : Lossy
Bits/(Pixel*Frame)               : 0.185
Stream size                      : 617 MiB (88%)
Writing library                  : XviD 1.2.1 (UTC 2008-12-04)

Audio
ID                               : 1
Format                           : MPEG Audio
Format version                   : Version 1
Format profile                   : Layer 3
Mode                             : Joint stereo
Codec ID                         : 55
Codec ID/Hint                    : MP3
Duration                         : 1h 26mn
Bit rate mode                    : Constant
Bit rate                         : 128 Kbps
Channel(s)                       : 2 channels
Sampling rate                    : 48.0 KHz
Compression mode                 : Lossy
Stream size                      : 79.1 MiB (11%)
Alignment                        : Aligned on interleaves
Interleave, duration             : 167 ms (4.00 video frames)
Interleave, preload duration     : 216 ms
Title                            : A.Haunted.House.2013.720p.BluRay.DTS-5.1.x264-AXED
Writing library                  : LAME3.99r
Encoding settings                : -m j -V 4 -q 2 -lowpass 17 -b 128		
[ www.Speed.Cd ] - A Haunted House (2013) BRRip XviD-MeRCuRY/01.png 282.415 KB
[ www.Speed.Cd ] - A Haunted House (2013) BRRip XviD-MeRCuRY/02.png 275.564 KB
[ www.Speed.Cd ] - A Haunted House (2013) BRRip XviD-MeRCuRY/03.png 323.868 KB
Gathering some info...

Register and log in Isohunt and see no captcha anymore!

4000 symbols left
Hash 43e4bc689dbcf921f8efecef23864b2fb57cf3a9

Related torrents for "[ www.Speed.Cd ] - A Haunted House (2013) BRRip XviD-MeRCuRY"

Torrent search:

bd 2013