imdb
rating

5.7
Pawn

Pawn (2013)

Crime, Thriller

Full description
quality   x264 hd bd fullhd dvdrip dvd

[ www.Speed.Cd ] - Pawn (2013) BRRip XviD-MeRCuRY

Size 743.526 MB   0 seeders     Added 2013-04-13 07:01:40

Stream torrent
Starting‥ You need BitLord! Get it from BitLord.com
10
To download or stream you need BitLord. Visit them at BitLord.com
-
 
http://www.Speed. Cd       the fast  and The Hottest Private Tracker on the net 
http://www.Speed. Cd

Please Seed back to make the speed Faster!!
 ............ NFO .............
-
 
http://www.Speed. CdGeneral
Complete name                    : C:UsersAdministratorDesktopBeyazHDLBRRRipPawn (2013) BRRip XviD-MeRCuRYPawn (2013) BRRip XviD-MeRCuRY.avi
Format                           : AVI
Format/Info                      : Audio Video Interleave
File size                        : 708 MiB
Duration                         : 1h 28mn
Overall bit rate                 : 1 120 Kbps

Video
ID                               : 0
Format                           : MPEG-4 Visual
Format profile                   : Advanced Simple@L5
Format settings, BVOP            : 2
Format settings, QPel            : Yes
Format settings, GMC             : No warppoints
Format settings, Matrix          : Default (H.263)
Codec ID                         : XVID
Codec ID/Hint                    : XviD
Duration                         : 1h 28mn
Bit rate                         : 986 Kbps
Width                            : 640 pixels
Height                           : 272 pixels
Display aspect ratio             : 2.35:1
Frame rate                       : 23.976 fps
Color space                      : YUV
Chroma subsampling               : 4:2:0
Bit depth                        : 8 bits
Scan type                        : Progressive
Compression mode                 : Lossy
Bits/(Pixel*Frame)               : 0.236
Stream size                      : 624 MiB (88%)
Writing library                  : XviD 1.2.1 (UTC 2008-12-04)

Audio
ID                               : 1
Format                           : MPEG Audio
Format version                   : Version 1
Format profile                   : Layer 3
Mode                             : Joint stereo
Codec ID                         : 55
Codec ID/Hint                    : MP3
Duration                         : 1h 28mn
Bit rate mode                    : Constant
Bit rate                         : 128 Kbps
Channel(s)                       : 2 channels
Sampling rate                    : 48.0 KHz
Compression mode                 : Lossy
Stream size                      : 81.0 MiB (11%)
Alignment                        : Aligned on interleaves
Interleave, duration             : 167 ms (4.00 video frames)
Interleave, preload duration     : 216 ms
Title                            : Pawn.2013.BluRay.720p.AC3.x264-CHD
Writing library                  : LAME3.99r
Encoding settings                : -m j -V 4 -q 2 -lowpass 17 -b 128		
[ www.Speed.Cd ] - Pawn (2013) BRRip XviD-MeRCuRY/01.png 160.476 KB
[ www.Speed.Cd ] - Pawn (2013) BRRip XviD-MeRCuRY/02.png 160.13 KB
[ www.Speed.Cd ] - Pawn (2013) BRRip XviD-MeRCuRY/03.png 130.083 KB
Gathering some info...

Register and log in Isohunt and see no captcha anymore!

4000 symbols left
Hash a2978918fd90bbaba4b4fa293c74bc2e02beddce

Related torrents for "[ www.Speed.Cd ] - Pawn (2013) BRRip XviD-MeRCuRY"

Torrent search:

bd 2013