imdb
rating

6.2
Highway to Hellas

Highway to Hellas (2015)

Comedy

Full description
quality   dvdrip h264 fullhd bd hd

Highway Gospel.mp4

Size 705.348 MB   0 seeders     Added 2013-04-13 10:23:35

Stream torrent
Starting‥ You need BitLord! Get it from 1BitLord.com
To download or stream you need BitLord. Visit them at BitLord.com
A coward dies a thousand deaths, a brave man dies but once. B.C. renegades race down mountain highways on customized longboards, while a middle-aged skateboarder fights to keep his Ottawa skate park and creaky knees operational. Whether its bombing down hills at over 100km per hour, just inches from the ground, or spending 25 years and their life savings to keep competing in the sport they love, these guys are truly devoted - and a little road rash or even open-heart surgery are simply tests for the faithful. What starts out as a gonzo skate movie turns into a surprisingly heartfelt documentary that bears witness to the power of community, dedication and the DIY spirit. With intimate and candid moments that may lead you to think this is a mocumentary, Highway Gospel is a humorous and at times heartbreaking multi-character documentary that strikes an intricate balance between rowdy and insightful while serving as a reminder that heartfelt stories can also be hilarious. 
Starring: Jody Schnitzel Willcox, Noah Weshe
Directed by: Jaret Belliveau, Craig Jackson
Runtime: 1 hour 32 minutes
Studio: Gravitas Ventures
Format                                   : MPEG-4
Format profile                           : Base Media
Codec ID                                 : isom
File size                                : 673 MiB
Duration                                 : 1h 31mn
Overall bit rate                         : 1 027 Kbps
Video
Duration                                 : 1h 31mn
Bit rate                                 : 895 Kbps
Width                                    : 704 pixels
Height                                   : 396 pixels
Display aspect ratio                     : 16:9
Frame rate mode                          : Constant
Frame rate                               : 24.000 fps
Color space                              : YUV
Chroma subsampling                       : 4:2:0
Bit depth                                : 8 bits
Scan type                                : Progressive
Stream size                              : 586 MiB (87%)
Language                                 : English
Audio
Format                                   : AAC
Duration                                 : 1h 31mn
Bit rate mode                            : Constant
Bit rate                                 : 128 Kbps
Channel(s)                               : 2 channels
Sampling rate                            : 48.0 KHz
Compression mode                         : Lossy
Stream size                              : 83.7 MiB (12%)
Language                                 : English
Highway Gospel.mp4 705.348 MB
Gathering some info...

Register and log in Isohunt and see no captcha anymore!

4000 symbols left
Hash fdad6d440095afc6b0388f534d413cf0592943d7

Related torrents for "Highway Gospel.mp4"