imdb
rating

5.8
Would You Rather

Would You Rather (2012)

Horror, Thriller

Full description
quality   h264 hd web-dl web-rip x264 dvdr bd

[ www.Speed.Cd ] - Would.You.Rather.2012.WEBRip.X264.AAC-THC

Size 745.188 MB   0 seeders     Added 2013-04-13 10:46:34

Stream torrent
Starting‥ You need BitLord! Get it from BitLord.com
To download or stream you need BitLord. Visit them at BitLord.com
-
 
http://www.Speed. Cd       the fast  and The Hottest Private Tracker on the net 
http://www.Speed. Cd

Please Seed back to make the speed Faster!!
 ............ NFO .............
-
 
http://www.Speed. Cd[center][IMG]image[/IMG][/center]

[center][img]image[/img][/center] 
http://www.imdb.com/title/tt1999995/

Would.You.Rather.2012.WEBRip.X264.AAC-*THC*

Format                                   : MPEG-4
Format profile                           : Base Media
Codec ID                                 : isom
File size                                : 711 MiB
Duration                                 : 1h 33mn
Overall bit rate mode                    : Variable
Overall bit rate                         : 1 064 Kbps
Encoded date                             : UTC 2013-04-13 02:47:14
Tagged date                              : UTC 2013-04-13 02:47:14

Video
ID                                       : 1
Format                                   : AVC
Format/Info                              : Advanced Video Codec
Format profile                           : High@L4.1
Format settings, CABAC                   : Yes
Format settings, ReFrames                : 4 frames
Codec ID                                 : avc1
Codec ID/Info                            : Advanced Video Coding
Duration                                 : 1h 33mn
Bit rate mode                            : Variable
Bit rate                                 : 930 Kbps
Maximum bit rate                         : 40.0 Mbps
Width                                    : 640 pixels
Height                                   : 272 pixels
Display aspect ratio                     : 2.35:1
Frame rate mode                          : Constant
Frame rate                               : 23.976 fps
Color space                              : YUV
Chroma subsampling                       : 4:2:0
Bit depth                                : 8 bits
Scan type                                : Progressive
Bits/(Pixel*Frame)                       : 0.223
Stream size                              : 622 MiB (88%)
Encoded date                             : UTC 2013-04-13 02:47:14
Tagged date                              : UTC 2013-04-13 02:47:51

Audio
ID                                       : 2
Format                                   : AAC
Format/Info                              : Advanced Audio Codec
Format profile                           : LC
Codec ID                                 : 40
Duration                                 : 1h 33mn
Bit rate mode                            : Variable
Bit rate                                 : 128 Kbps
Maximum bit rate                         : 137 Kbps
Channel(s)                               : 2 channels
Channel positions                        : Front: L R
Sampling rate                            : 48.0 KHz
Compression mode                         : Lossy
Stream size                              : 85.5 MiB (12%)
Encoded date                             : UTC 2013-04-13 01:51:21
Tagged date                              : UTC 2013-04-13 02:47:51

[center][IMG]image[/IMG][/center]
[center][IMG]image[/IMG][/center]
[center][IMG]image[/IMG][/center]
[center][IMG]image[/IMG][/center]
		
[ www.Speed.Cd ] - Would.You.Rather.2012.WEBRip.X264.AAC-THC/THC-wyr.nfo 3.325 KB
[ www.Speed.Cd ] - Would.You.Rather.2012.WEBRip.X264.AAC-THC/Would.You.Rather.2012.WEBRip.X264.AAC-THC.mp4 745.185 MB
[ www.Speed.Cd ] - Would.You.Rather.2012.WEBRip.X264.AAC-THC/www.scenetime.com.txt 55 B
Gathering some info...

Register and log in Isohunt and see no captcha anymore!

4000 symbols left
Hash 2ec9a5493ef2b185ce6a7b4239a81193ee73397c

Related torrents for "[ www.Speed.Cd ] - Would.You.Rather.2012.WEBRip.X264.AAC-THC"

Torrent search:

x264 2012 web-rip