imdb
rating

5.1
A Haunted House

A Haunted House (2013)

Comedy, Horror

Full description
quality   dvdrip h264 hd cam screener

A Haunted House 2013 BRRip 720p x264 AAC - PRiSTiNE [P2PDL]

Size 534.081 MB   53 seeders     Added 2013-04-13 13:32:51

Stream torrent
Starting‥ You need BitLord! Get it from 1BitLord.com
To download or stream you need BitLord. Visit them at BitLord.com
_________________________  Visit us at _________________________
  
http://p2pdl.com  ____________________________  http://p2pdl.com


A Haunted House 2013 BRRip 720p x264 AAC - PRiSTiNE [P2PDL]

Genre: Comedy | Horror
Plot: Malcolm and Kisha move into their dream 
home, but soon learn a demon also resides there. 
When Kisha becomes possessed, Malcolm - determined 
to keep his sex life on track - turns to a priest, 
a psychic, and a team of ghost-busters for help.
Director: Michael Tiddes
Stars:  Marlon Wayans, Marlene Forte, Essence Atkins
Rated: Rated R for crude and sexual content, language and some drug use

Info: 
http://www.imdb.com/title/tt0068327/


General
Complete name                  : A Haunted House 2013 BRRip 720p x264 AAC - PRiSTiNE.mp4
Format                         : MPEG-4
Format profile                 : Base Media
File size                      : 508 MiB
Duration                       : 1h 26mn
Overall bit rate mode          : Variable
Overall bit rate               : 821 Kbps

Video
Format                         : AVC
Format/Info                    : Advanced Video Codec
Format profile                 : High 10@L4.1
Bit rate                       : 740 Kbps
Width                          : 1 280 pixels
Height                         : 688 pixels
Display aspect ratio           : 1.85:1
Frame rate mode                : Constant
Frame rate                     : 23.976 fps
Bit depth                      : 10 bits
Stream size                    : 457 MiB (90%)
Writing library                : x264 core 130 r2273 b3065e6

Audio
Format                         : AAC
Format/Info                    : Advanced Audio Codec
Bit rate mode                  : Variable
Bit rate                       : 79.0 Kbps
Channel(s)                     : 2 channels
Channel positions              : Front: L R
Sampling rate                  : 48.0 KHz / 24.0 KHz
Stream size                    : 48.8 MiB (10%)

Subtitle                       : Yes (English)
Source                         : 720p.BluRay.DTS.x264.RoSubbed-AXED (Thanks)

Screens:
 
image 
image 
image 
image


----------------------------------------------------------------------------------------------------


Encoded using revolutionary 10bit encoding, which enables us to provide you more crispier 
and sharper images at small sizes, just make sure you follow our instructions without a fault.
Recommend to you to use latest version of VLC player. Install K-Lite Codec Pack or shark007 codecs
in case of any kind of problem in playback (For non-VLC Media Player users). Alternatively, install
Core AVC codecs, the fastest decoder that there is coupled with Community Center Codec Pack and play
on Windows Media Player Classic. Check sample to be sure.
Enjoy!

Encoder Notes:Looking For Early Access To Anything You Can Provide DVDScr, R5, DVDR, BluRay, Direct
Audio, Music Releases and Seedboxes. We require dedicated servers, so as to do more 
and fast releases of movies.
If You Got anything to offer please contact us at "prg@hush.com".

Face book Fan Page:   
http://www.fb.me/p2pdl		
A Haunted House 2013 BRRip 720p x264 AAC - PRiSTiNE [P2PDL]/A Haunted House 2013 BRRip 720p x264 AAC - PRiSTiNE/A Haunted House 2013 BRRip 720p x264 AAC - PRiSTiNE.mp4 532.366 MB
A Haunted House 2013 BRRip 720p x264 AAC - PRiSTiNE [P2PDL]/Sample.mp4 1.551 MB
A Haunted House 2013 BRRip 720p x264 AAC - PRiSTiNE [P2PDL]/A Haunted House 2013 BRRip 720p x264 AAC - PRiSTiNE/A Haunted House 2013 BRRip 720p x264 AAC - PRiSTiNE.srt 157.674 KB
Gathering some info...

Register and log in Isohunt and see no captcha anymore!

4000 symbols left
Hash dd25b72be57ce290a97e83813f818eff9bfc3068

Related torrents for "A Haunted House 2013 BRRip 720p x264 AAC - PRiSTiNE [P2PDL]"

Torrent search:

x264 hd bd 2013