Biwi.Ho.To.Aisi.1988.DvDrip.x264.AAC.ESub.RRG.DADA.DBBians.Com.mp4

Size 1.238 GB   0 seeders     Added 2013-04-13 19:02:35

Stream torrent
Starting‚Ä• You need BitLord! Get it from BitLord.com
To download or stream you need BitLord. Visit them at BitLord.com

-: Cover :- 


    	image

-: Screens :-


    	image
    	image
    	image
    	image
    	image
    	image
    	image
    	image
    	image






-: Info :-


General

Format                           : MP4 Video
File size                        : 1.15 GiB
Duration                         : 2h 29mn
Overall bit rate                 : 1 105 Kbps

Video
Format                           : AVC
Format/Info                      : Advanced Video Codec
Format profile                   : Main@L3.0
Format settings, CABAC           : Yes
Format settings, ReFrames        : 3 frames

Duration                         : 2h 29mn
Bit rate                         : 969 Kbps
Width                            : 600 pixels
Height                           : 480 pixels
Display aspect ratio             : 5:4
Frame rate mode                  : Constant
Frame rate                       : 25.000 fps
Color space                      : YUV
Chroma subsampling               : 4:2:0
Bit depth                        : 8 bits
Scan type                        : Progressive
Bits/(Pixel*Frame)               : 0.135
Stream size                      : 1.01 GiB (88%)

Audio
Format                           : AAC
Format/Info                      : Advanced Audio Codec
Format version                   : Version 4
Format profile                   : LC
Format settings, SBR             : No
Duration                         : 2h 29mn
Bit rate                         : 129 Kbps
Channel(s)                       : 2 channels
Channel positions                : Front: L R
Sampling rate                    : 44.1 KHz
Bit depth                        : 16 bits
Stream size                      : 137 MiB (12%)


 
http://www.imdb.com/title/tt0168516/


Suraj Bhandari (Farooq Shaikh) is the well-mannered and obedient son of Kailash and Kamla Bhandari. Theirs is an affluent upper-class family. The household is fiercely dominated by Kamla (Bindu) who wants her eldest son to marry a girl whose social status matches theirs.
However, contrary to her wishes Suraj follows his heart and marries the not so rich, yet talented Village belle Shalu (Rekha) which infuriates Kamla to no end, and together with her comical, but scheming secretary (Asrani), vows to throw her out of the house with their shrewd and cunning tactics deployed against her.
Meanwhile Shalu tries to be a dutiful daughter-in-law by trying to win the heart of Kamla. She has the full support and understanding of her father-in-law (the hen-pecked husband of Kamla) Kailash Bhandari (Kader Khan) who treats her like a daughter and her young brother-in-law Vicky (Salman Khan) who sometimes cannot bear the atrocities meted out at his sister-in-law and gets vocal in protests against his tyrant mother.
After endless attempts of humiliation and personal attacks, Shalu hits back in her style and her true identity is revealed towards the climax. She shocks everyone with her diction and articulate speech in sharp contrast to her crude village belle identity.
Her father Ashok Mehra (a family friend of the Bhandaris) reveals her true identity. Kamla learns that Shalu is the Oxford-educated daughter of Mehra, who in connivance with her husband (Kailash), had won her way into the family in a way to teach her a lesson in humility and humanity. Kailash gets vocal against his wife for the first time.
Kamla realises and repents of her behaviour towards the family when they all decide to leave her and the house. Kamla sincerely apologises to all and happiness finally enters the Bhandari household.

    Category
        Family
        Comedy
        Drama
    Starring:
        Rekha
        Farooq Sheikh
        Bindu
        Kader Khan
        Asrani
        Salman Khan
    Directed by:
        J.K. Bihari
    Produced by:
        K C Bokadia
        Suresh Bhagat
    Written by:
        J.K. Bihari

		
Biwi.Ho.To.Aisi.1988.DvDrip.x264.AAC.ESub.RRG.DADA.DBBians.Com.mp4 1.238 GB
Gathering some info...

Register and log in Isohunt and see no captcha anymore!

4000 symbols left
Hash 221aa7e0fb041838fcefbe0adb6c30109662de81