imdb
rating

6.2
Broken City

Broken City (2013)

Crime, Drama, Thriller

Full description

Broken City 2013 WEBRiP XviD AC3 - BHRG

Size 1.573 GB   0 seeders     Added 2013-04-13 19:46:35

Stream torrent
Starting‥ You need BitLord! Get it from BitLord.com
To download or stream you need BitLord. Visit them at BitLord.com
Format                                   : AVI
Format/Info                              : Audio Video Interleave
File size                                : 1.45 GiB
Duration                                 : 1h 48mn
Overall bit rate                         : 1 899 Kbps

Video
ID                                       : 0
Format                                   : MPEG-4 Visual
Format profile                           : Advanced Simple@L5
Format settings, BVOP                    : 2
Format settings, QPel                    : No
Format settings, GMC                     : No warppoints
Format settings, Matrix                  : Default (H.263)
Codec ID                                 : XVID
Codec ID/Hint                            : XviD
Duration                                 : 1h 48mn
Bit rate                                 : 1 509 Kbps
Width                                    : 720 pixels
Height                                   : 304 pixels
Display aspect ratio                     : 2.35:1
Frame rate                               : 23.976 fps
Color space                              : YUV
Chroma subsampling                       : 4:2:0
Bit depth                                : 8 bits
Scan type                                : Progressive
Compression mode                         : Lossy
Bits/(Pixel*Frame)                       : 0.287
Stream size                              : 1.15 GiB (79%)
Writing library                          : XviD 1.2.1 (UTC 2008-12-04)

Audio
ID                                       : 1
Format                                   : AC-3
Format/Info                              : Audio Coding 3
Mode extension                           : CM (complete main)
Format settings, Endianness              : Big
Codec ID                                 : 2000
Duration                                 : 1h 48mn
Bit rate mode                            : Constant
Bit rate                                 : 384 Kbps
Channel(s)                               : 6 channels
Channel positions                        : Front: L C R, Side: L R, LFE
Sampling rate                            : 48.0 KHz
Bit depth                                : 16 bits
Compression mode                         : Lossy
Stream size                              : 299 MiB (20%)
Alignment                                : Aligned on interleaves
Interleave, duration                     : 64 ms (1.54 video frames)
Interleave, preload duration             : 192 ms
Title                                    : Broken.City.1080p.WEB-DL.DD5.1.H.264-HKD - [1] English
		
Broken City 2013 WEBRiP XviD AC3 - BHRG/www.RARBG.com.txt 45 B
Broken City 2013 WEBRiP XviD AC3 - BHRG/Broken City 2013 WEBRiP XviD AC3 - BHRG.avi 1.552 GB
Broken City 2013 WEBRiP XviD AC3 - BHRG/Broken City 2013 WEBRiP XviD AC3 - BHRG (Sample).avi 20.771 MB
Gathering some info...

Register and log in Isohunt and see no captcha anymore!

4000 symbols left
Hash c69b30e64e25c0777c6296516397c2ced9a76695

Related torrents for "Broken City 2013 WEBRiP XviD AC3 - BHRG"

Torrent search:

web-rip 2013