imdb
rating

6.7
The Rachel Maddow Show

The Rachel Maddow Show

News

Full description

The.Rachel.Maddow.Show.2013.04.12.x264.mkv

Size 191.785 MB   0 seeders     Added 2013-04-14 10:23:36

Stream torrent
Starting‥ You need BitLord! Get it from BitLord.com
To download or stream you need BitLord. Visit them at BitLord.com

The Rachel Maddow Show - mkv
April 12  - 2013
Video
Source 				 : Small Fuzzy SDTV
ID                               : 1
Format                           : AVC
Format/Info                      : Advanced Video Codec
Format profile                   : High@L2.2
Format settings, CABAC           : Yes
Format settings, ReFrames        : 10 frames
Codec ID                         : V_MPEG4/ISO/AVC
Duration                         : 43mn 33s
Bit rate                         : 500 Kbps
Width                            : 544 pixels
Height                           : 304 pixels
Display aspect ratio             : 16:9
Frame rate                       : 29.970 fps
Color space                      : YUV
Chroma subsampling               : 4:2:0
Bit depth                        : 8 bits
Scan type                        : Progressive
Bits/(Pixel*Frame)               : 0.101
Stream size                      : 149 MiB (82%)
Writing library                  : x264 core 120
Audio
ID                               : 2
Format                           : Vorbis
Format settings, Floor           : 1
Codec ID                         : A_VORBIS
Duration                         : 43mn 33s
Bit rate mode                    : Variable
Bit rate                         : 96.0 Kbps
Channel(s)                       : 2 channels
Sampling rate                    : 48.0 KHz
Compression mode                 : Lossy
Stream size                      : 29.9 MiB (16%)
The.Rachel.Maddow.Show.2013.04.12.x264.mkv 191.785 MB
Gathering some info...

Register and log in Isohunt and see no captcha anymore!

4000 symbols left
Hash 7c855a7350d1bd6a34f50fe3f20962102416d3d4

Related torrents for "The.Rachel.Maddow.Show.2013.04.12.x264.mkv"

Torrent search:

x264 2013