imdb
rating

5.6
The Numbers Station

The Numbers Station (2013)

Action, Thriller

Full description

The.Number.Stations.2013.WEBRip.XviD.Ac3.Feel-Free

Size 762.908 MB   0 seeders     Added 2013-04-14 16:46:37

Stream torrent
Starting‥ You need BitLord! Get it from BitLord.com
To download or stream you need BitLord. Visit them at BitLord.com
Genre:Action | Thriller
Language:English
IMDb:http://www.imdb.com/title/tt1659338/
Source:VoXHD Thanks
Sample:Never
Encoder:Tony

Format                                   : AVI
Format/Info                              : Audio Video Interleave
File size                                : 727 MiB
Duration                                 : 1h 28mn
Overall bit rate                         : 1 143 Kbps

Video
ID                                       : 0
Format                                   : MPEG-4 Visual
Format profile                           : Advanced Simple@L5
Format settings, BVOP                    : 1
Format settings, QPel                    : No
Format settings, GMC                     : No warppoints
Format settings, Matrix                  : Default (H.263)
Codec ID                                 : XVID
Codec ID/Hint                            : XviD
Duration                                 : 1h 28mn
Bit rate                                 : 749 Kbps
Width                                    : 640 pixels
Height                                   : 264 pixels
Display aspect ratio                     : 2.40:1
Frame rate                               : 23.976 fps
Color space                              : YUV
Chroma subsampling                       : 4:2:0
Bit depth                                : 8 bits
Scan type                                : Progressive
Compression mode                         : Lossy
Bits/(Pixel*Frame)                       : 0.185
Stream size                              : 477 MiB (66%)
Writing library                          : XviD 1.2.1 (UTC 2008-12-04)

Audio
ID                                       : 1
Format                                   : AC-3
Format/Info                              : Audio Coding 3
Mode extension                           : CM (complete main)
Codec ID                                 : 2000
Duration                                 : 1h 28mn
Bit rate mode                            : Constant
Bit rate                                 : 384 Kbps
Channel(s)                               : 6 channels
Channel positions                        : Front: L C R, Side: L R, LFE
Sampling rate                            : 48.0 KHz
Bit depth                                : 16 bits
Compression mode                         : Lossy
Stream size                              : 244 MiB (34%)
Alignment                                : Aligned on interleaves
Interleave, duration                     : 42 ms (1.00 video frame)
Interleave, preload duration             : 512 ms

Screens: 
image 
image 
image		
The.Number.Stations.2013.WEBRip.XviD.Ac3.Feel-Free/vlcsnap-2013-04-14-10h36m42s86.png 297.437 KB
The.Number.Stations.2013.WEBRip.XviD.Ac3.Feel-Free/www.RARBG.com.txt 45 B
The.Number.Stations.2013.WEBRip.XviD.Ac3.Feel-Free/vlcsnap-2013-04-14-10h34m55s39.png 153.817 KB
Gathering some info...

Register and log in Isohunt and see no captcha anymore!

4000 symbols left
Hash fac0de3fa56b6bd7709cb8cd5adb0f6e1b65d871

Related torrents for "The.Number.Stations.2013.WEBRip.XviD.Ac3.Feel-Free"

Torrent search:

web-rip 2013