The Fugitive

The Fugitive (1963)

Full description

US Martials And The Fugitive

Size 538.835 MB   0 seeders     Added 2013-04-14 19:16:36

Stream torrent
Starting‥ You need BitLord! Get it from BitLord.com
To download or stream you need BitLord. Visit them at BitLord.com
Both The Fugitive and U.S.Marshals, packaged in 512MBs.


Welcome to the Recapstore.


(Wikipedia) The Fugitive is a 1993 American thriller film based on the 1960s television series of the same name created by Roy Huggins. The film was directed by Andrew Davis and stars Harrison Ford and Tommy Lee Jones. When Dr. Richard Kimble (Ford) is wrongfully convicted for the murder of his wife, and escapes from federal custody, he is declared a fugitive. He sets out to prove his innocence and bring those who were responsible to justice while being pursued relentlessly by a team of U.S. Marshals, led by Deputy Samuel Gerard (Jones).
U.S. Marshals is a 1998 action thriller film directed by Stuart Baird. The storyline was conceived from a screenplay written by Roy Huggins and John Pogue. The film is a sequel to the 1993 motion picture The Fugitive, which in turn was based on the 1960s television series of the same name, created by Huggins. The events depicted in the story do not involve the fictional protagonist of Dr. Richard Kimble personified by Harrison Ford from the initial film. Instead, an altered plot centers around a different fugitive played by actor Wesley Snipes, who attempts to elude government officials from an international conspiracy scandal. However, some of the actors from the previous film who portrayed Deputy Marshals, reprise their roles in the sequel. The ensemble cast features Tommy Lee Jones, Robert Downey, Jr., Joe Pantoliano, Daniel Roebuck, Tom Wood and LaTanya Richardson.


.srt Subtitles included. Enjoy and Please seed to at least a 1.5 ratio!

Also please bear with us as initial seeding may be a little slow

Sample mediainfo from The Fugitive:


General
Codec ID                                 : mp42
File size                                : 245 MiB
Duration                                 : 2h 10mn
Overall bit rate mode                    : Variable
Overall bit rate                         : 263 Kbps
Encoded date                             : UTC 2012-10-08 04:40:34
Tagged date                              : UTC 2012-10-08 06:40:57
Writing application                      : HandBrake 0.9.8 2012071700

Video
ID                                       : 1
Format                                   : AVC
Format/Info                              : Advanced Video Codec
Format profile                           : High@L2.1
Format settings, CABAC                   : Yes
Format settings, ReFrames                : 15 frames
Codec ID                                 : avc1
Codec ID/Info                            : Advanced Video Coding
Duration                                 : 2h 10mn
Bit rate mode                            : Variable
Bit rate                                 : 193 Kbps
Width                                    : 352 pixels
Height                                   : 192 pixels
Display aspect ratio                     : 16:9
Frame rate mode                          : Variable
Frame rate                               : 23.976 fps
Minimum frame rate                       : 23.810 fps
Maximum frame rate                       : 1 000.000 fps
Color space                              : YUV
Chroma subsampling                       : 4:2:0
Bit depth                                : 8 bits
Scan type                                : Progressive
Bits/(Pixel*Frame)                       : 0.119
Stream size                              : 180 MiB (74%)
Writing library                          : x264 core 120
Encoding settings                        : cabac=1 / ref=16 / deblock=1:2:2 / analyse=0x3:0x133 / me=tesa / subme=10 / psy=1 / psy_rd=1.20:0.20 / mixed_ref=1 / me_range=16 / chroma_me=1 / trellis=2 / 8x8dct=1 / cqm=0 / deadzone=21,11 / fast_pskip=1 / chroma_qp_offset=-3 / threads=6 / sliced_threads=0 / nr=0 / decimate=1 / interlaced=0 / bluray_compat=0 / constrained_intra=0 / bframes=16 / b_pyramid=1 / b_adapt=2 / b_bias=0 / direct=1 / weightb=1 / open_gop=0 / weightp=2 / keyint=240 / keyint_min=24 / scenecut=40 / intra_refresh=0 / rc_lookahead=40 / rc=crf / mbtree=1 / crf=23.0 / qcomp=0.60 / qpmin=3 / qpmax=69 / qpstep=4 / ip_ratio=1.40 / aq=1:2.00
Encoded date                             : UTC 2012-10-08 04:40:34
Tagged date                              : UTC 2012-10-08 06:40:57
Color primaries                          : BT.601 NTSC
Transfer characteristics                 : BT.709
Matrix coefficients                      : BT.601

Audio
ID                                       : 2
Format                                   : AAC
Format/Info                              : Advanced Audio Codec
Format profile                           : LC
Codec ID                                 : 40
Duration                                 : 2h 10mn
Bit rate mode                            : Variable
Bit rate                                 : 64.2 Kbps
Maximum bit rate                         : 96.3 Kbps
Channel(s)                               : 2 channels
Channel positions                        : Front: L R
Sampling rate                            : 48.0 KHz
Compression mode                         : Lossy
Delay relative to video                  : 83ms
Stream size                              : 59.8 MiB (24%)		
US Martials And The Fugitive/US Martials [2] U.S.Marshals (1998).mp4 281.809 MB
US Martials And The Fugitive/US Martials [1] The Fugitive (1993).mp4 256.804 MB
US Martials And The Fugitive/US Martials [1] The Fugitive (1993).srt 113.911 KB
Gathering some info...

Register and log in Isohunt and see no captcha anymore!

4000 symbols left
Hash eec432b0497d3085dfea7e8fa8d3c4793fa66c55

Related torrents for "US Martials And The Fugitive"

Torrent search:

1998