Анна Каренина (2005)

Анна Каренина (2005) (2005)

Drama

Full description

The Worlds Fastest Indian.2005.French.1080p.BluRay.x264 . NVEE

Size 2.727 GB   16 seeders     Added 2013-04-14 19:31:35

Stream torrent
Starting‥ You need BitLord! Get it from BitLord.com
To download or stream you need BitLord. Visit them at BitLord.com
NOTE : I WILL BE UPLOADING ENGLISH, FRENCH, HUNGARIAN & ITALIAN AUDIO ALL SEPARATE.
SO KEEP ON THE LOOKOUT FOR "YOUR" PREFERENCE !!!

FULL_INFOS

100% >>> SYNCED GUARANTEED

Source : BluRay

Subtitles : MULTI_SUBS

All Subtitles can be turned On/Off

My Media Player Of Choice - "VLC Media Player"

Spoken Languages : French Only




General 

Complete name : Worlds Fastest Indian.2005.French.1080p.BluRay.x264 . NVEE.mp4 
Format : MPEG-4 
Format profile : Base Media 
Codec ID : isom 
File size : 2.54 GiB 
Duration : 2h 6mn 
Overall bit rate : 2 863 Kbps 
Encoded date : UTC 2013-04-14 06:25:31 
Tagged date : UTC 2013-04-14 06:25:31 

Video 

ID : 1 
Format : AVC 
Format/Info : Advanced Video Codec 
Format profile : High@L4.0 
Format settings, CABAC : Yes 
Format settings, ReFrames : 4 frames 
Codec ID : avc1 
Codec ID/Info : Advanced Video Coding 
Duration : 2h 6mn 
Bit rate : 2 414 Kbps 
Maximum bit rate : 14.3 Mbps 
Width : 1 920 pixels 
Height : 816 pixels 
Display aspect ratio : 2.35:1 
Frame rate mode : Constant 
Frame rate : 24.000 fps 
Color space : YUV 
Chroma subsampling : 4:2:0 
Bit depth : 8 bits 
Scan type : Progressive 
Bits/(Pixel*Frame) : 0.064 
Stream size : 2.14 GiB (84%) 
Title : 2005.1080p.BluRay.x264 .264#trackID=1:fps=23.999@GPAC0.5.1-DEV-rev4283 
Writing library : x264 core 130 r2273 b3065e6 
Encoding settings : cabac=1 / ref=4 / deblock=1:0:0 / analyse=0x3:0x133
Encoded date : UTC 2013-04-14 06:25:31 
Tagged date : UTC 2013-04-14 06:38:28 

Audio 

ID : 2 
Format : AC-3 
Format/Info : Audio Coding 3 
Mode extension : CM (complete main) 
Format settings, Endianness : Big 
Codec ID : ac-3 
Duration : 2h 6mn 
Bit rate mode : Constant 
Bit rate : 448 Kbps 
Channel(s) : 2 channels 
Channel positions : Front: L R 
Sampling rate : 48.0 KHz 
Bit depth : 16 bits 
Compression mode : Lossy 
Stream size : 407 MiB (16%) 
Title : 2005.1080p.BluRay.x264 . NVEE - [1] French_audio.ac3#trackID=1:lang=fr@GPAC0.5.1-DEV-rev4283 
Language : French 
Encoded date : UTC 2013-04-14 06:36:43 
Tagged date : UTC 2013-04-14 06:38:28 



Plot

Burt Munro is a sort of folk hero in his hometown for his friendly and charming personality and for being featured in Popular Mechanics magazine (May 1957 p6) for having the fastest motorcycle in Australia and New Zealand. However, that recognition is contrasted by his exasperated neighbours, who are fed up with his un-neighbourly habits such as urinating on his lemon tree every morning, neglecting his garden, and, most of all, waking up before sunrise to rev his bike's very loud engine.
Burt travels by cargo ship to the USA to participate in the Bonneville Speed Week, his longtime dream. When Burt arrives in Los Angeles, he experiences bureaucracy, skepticism and the coldness of big city people. It is his blunt but gregarious nature which overcomes each hurdle. He wins over the hardened motel clerk, a transvestite woman named Tina, who assists him in clearing customs and helps him in buying a car. The car salesman allows Burt to use his shop to make a trailer and later offers him a job after Burt fixes most of the cars on the lot. Burt declines the offer, however, and shortly afterwards begins his long trip to Utah.
Along the way, Burt meets many people, including a Native American who aids him when his trailer fails, a woman named Ada who helps him repair his trailer and briefly becomes his lover, and an Air Force pilot who is on a leave from his military service in Vietnam.
He finally arrives at the Bonneville Salt Flats, only to be turned away by race officials for not registering his bike for competition in advance. In a show of sportsmanship, however, various competitors in the Bonneville series intervene on his behalf, and he is eventually allowed to make a timed run. In the 8th mile, he achieves 201.851mph (324.847kph) then falls with the bike and skids to a stop. His leg is burned by the exhaust, yet he succeeds in his quest and sets a new land speed record.

SEE_ME_TORRENTS'N_SEED_ME_TORRENTS !!!

           (Thank You)		
The Worlds Fastest Indian.2005.French.1080p.BluRay.x264 . NVEE/The Worlds Fastest Indian.2005.French.1080p.BluRay.x264 . NVEE.mp4 2.724 GB
The Worlds Fastest Indian.2005.French.1080p.BluRay.x264 . NVEE/The Worlds Fastest Indian.2005.French.1080p.BluRay.x264 . NVEE - [6] Arabic.srt 159.653 KB
The Worlds Fastest Indian.2005.French.1080p.BluRay.x264 . NVEE/The Worlds Fastest Indian.2005.French.1080p.BluRay.x264 . NVEE - [7] Bulgarian.srt 157.812 KB
Gathering some info...

Register and log in Isohunt and see no captcha anymore!

4000 symbols left
Hash b306acd7ad744c4bc554bd9364a25ea2e9402d1f

Related torrents for "The Worlds Fastest Indian.2005.French.1080p.BluRay.x264 . NVEE"

Torrent search:

french 2005 x264 hindi fullhd bd