imdb
rating

3.3
Hollywood Sex Wars

Hollywood Sex Wars (2011)

Comedy

Full description
quality   dvdrip x264 h264 hd web-dl bd fullhd

Hollywood.Sex.Wars.2011 BRRip XViD juggs

Size 748.764 MB   165 seeders     Added 2013-04-14 20:46:35

Stream torrent
Starting‥ You need BitLord! Get it from BitLord.com
10
To download or stream you need BitLord. Visit them at BitLord.com
Source : 720 ETM(Thanks)
 
http://www.imdb.com/title/tt1764366

Format                                   : AVI
Format/Info                              : Audio Video Interleave
File size                                : 702 MiB
Duration                                 : 1h 38mn
Overall bit rate                         : 993 Kbps
Writing library                          : VirtualDub build 32842/release

Video
ID                                       : 0
Format                                   : MPEG-4 Visual
Format profile                           : Advanced Simple@L5
Format settings, BVOP                    : 2
Format settings, QPel                    : No
Format settings, GMC                     : No warppoints
Format settings, Matrix                  : Default (H.263)
Muxing mode                              : Packed bitstream
Codec ID                                 : XVID
Codec ID/Hint                            : XviD
Duration                                 : 1h 38mn
Bit rate                                 : 855 Kbps
Width                                    : 640 pixels
Height                                   : 352 pixels
Display aspect ratio                     : 16:9
Frame rate                               : 23.976 fps
Color space                              : YUV
Chroma subsampling                       : 4:2:0
Bit depth                                : 8 bits
Scan type                                : Progressive
Compression mode                         : Lossy
Bits/(Pixel*Frame)                       : 0.158
Stream size                              : 605 MiB (86%)
Writing library                          : XviD 1.2.0.dev47 (UTC 2006-11-01)

Audio
ID                                       : 1
Format                                   : MPEG Audio
Format version                           : Version 1
Format profile                           : Layer 3
Codec ID                                 : 55
Codec ID/Hint                            : MP3
Duration                                 : 1h 38mn
Bit rate mode                            : Constant
Bit rate                                 : 128 Kbps
Channel(s)                               : 2 channels
Sampling rate                            : 44.1 KHz
Compression mode                         : Lossy
Stream size                              : 90.6 MiB (13%)
Alignment                                : Split accross interleaves
Interleave, duration                     : 42 ms (1.00 video frame)
Interleave, preload duration             : 500 ms
Writing library                          : LAME3.99r
Encoding settings                        : -m s -V 4 -q 3 -lowpass 17 -b 128
 
image 
image 
image		
Hollywood.Sex.Wars.2011 BRRip XViD juggs/Hollywood.Sex.Wars.2011 BRRip XViD juggs.avi 736.471 MB
Hollywood.Sex.Wars.2011 BRRip XViD juggs/Torrent Downloaded From ExtraTorrent.com.txt 339 B
Hollywood.Sex.Wars.2011 BRRip XViD juggs/sample.avi 12.292 MB
Gathering some info...

Register and log in Isohunt and see no captcha anymore!

4000 symbols left
Hash b699f0bf43bbfb849bae759534c1f4f1b5065808

Related torrents for "Hollywood.Sex.Wars.2011 BRRip XViD juggs"

Torrent search:

bd 2011