imdb
rating

4.9
Temptation: Confessions of a Marriage Counselor

Temptation: Confessions of a Marriage Counselor (2013)

Drama

Full description
quality   cam dvdrip x264 hd bd dvdr dvd h264

Temptation 2013 CAMRip XviD AC3 - TODE

Size 734.607 MB   0 seeders     Added 2013-04-14 23:34:34

Stream torrent
Starting‥ You need BitLord! Get it from BitLord.com
To download or stream you need BitLord. Visit them at BitLord.com
Director:
Tyler Perry

Writer:
Tyler Perry

Stars:
Jurnee Smollett-Bell, Kim Kardashian, Vanessa Williams

Genres:
Drama

Country:
USA

Language:
English


Thanks: JUSTiCE


Format                                   : AVI
Format/Info                              : Audio Video Interleave
File size                                : 701 MiB
Duration                                 : 1h 46mn
Overall bit rate                         : 921 Kbps
Writing application                      : Lavf54.59.103

Video
ID                                       : 0
Format                                   : MPEG-4 Visual
Format profile                           : Simple@L3
Format settings, BVOP                    : No
Format settings, QPel                    : No
Format settings, GMC                     : No warppoints
Format settings, Matrix                  : Default (H.263)
Codec ID                                 : XVID
Codec ID/Hint                            : XviD
Duration                                 : 1h 46mn
Bit rate                                 : 845 Kbps
Width                                    : 640 pixels
Height                                   : 320 pixels
Display aspect ratio                     : 1.950
Frame rate                               : 29.970 fps
Color space                              : YUV
Chroma subsampling                       : 4:2:0
Bit depth                                : 8 bits
Scan type                                : Progressive
Compression mode                         : Lossy
Bits/(Pixel*Frame)                       : 0.138
Stream size                              : 643 MiB (92%)
Writing library                          : XviD 64

Audio
ID                                       : 1
Format                                   : AC-3
Format/Info                              : Audio Coding 3
Mode extension                           : CM (complete main)
Format settings, Endianness              : Big
Codec ID                                 : 2000
Duration                                 : 1h 46mn
Bit rate mode                            : Constant
Bit rate                                 : 64.0 Kbps
Channel(s)                               : 2 channels
Channel positions                        : Front: L R
Sampling rate                            : 48.0 KHz
Bit depth                                : 16 bits
Compression mode                         : Lossy
Stream size                              : 48.7 MiB (7%)
Alignment                                : Aligned on interleaves
Interleave, duration                     : 32 ms (0.96 video frame)

Screens: 
image 
image 
image 
image		
Temptation 2013 CAMRip XviD AC3 - TODE/www.RARBG.com.txt 45 B
Temptation 2013 CAMRip XviD AC3 - TODE/Temptation 2013 CAMRip XviD AC3 - TODE.avi 734.607 MB
Gathering some info...

Register and log in Isohunt and see no captcha anymore!

4000 symbols left
Hash 13c45cbea5a5793c7c309ef52240e821be180d50

Related torrents for "Temptation 2013 CAMRip XviD AC3 - TODE"

Torrent search:

cam 2013