imdb
rating

6.4
The Company You Keep

The Company You Keep (2012)

Thriller

Full description

The Company You Keep 2012 DVDRip XviD AC3 -TODE Verified

Size 737.177 MB   84 seeders     Added 2013-04-14 23:35:34

Stream torrent
Starting‥ You need BitLord! Get it from BitLord.com
10
To download or stream you need BitLord. Visit them at BitLord.com
The Company You Keep 2012 DVDRip XviD AC3-TODE

 
http://www.imdb.com/title/tt1381404/


Plot: A thriller centered on a former Weather Underground activist who goes 
on the run from a journalist who has discovered his identity.


Director:
Robert Redford

Writers:
Lem Dobbs (screenplay), Neil Gordon (based on the novel by)

Stars:
Robert Redford, Nick Nolte, Stanley Tucci

Genres:
Thriller

Country:
USA

Language:
English


Thanks: CM8


Format : AVI
Format/Info : Audio Video Interleave
File size : 703 MiB
Duration : 1h 57mn
Overall bit rate : 839 Kbps
Writing application : Lavf54.59.103

Video
ID : 0
Format : MPEG-4 Visual
Format profile : Simple@L3
Format settings, BVOP : No
Format settings, QPel : No
Format settings, GMC : No warppoints
Format settings, Matrix : Default (H.263)
Codec ID : XVID
Codec ID/Hint : XviD
Duration : 1h 57mn
Bit rate : 700 Kbps
Width : 640 pixels
Height : 272 pixels
Display aspect ratio : 2.35:1
Frame rate : 25.000 fps
Color space : YUV
Chroma subsampling : 4:2:0
Bit depth : 8 bits
Scan type : Progressive
Compression mode : Lossy
Bits/(Pixel*Frame) : 0.161
Stream size : 587 MiB (83%)
Writing library : XviD 64

Audio
ID : 1
Format : AC-3
Format/Info : Audio Coding 3
Mode extension : CM (complete main)
Format settings, Endianness : Big
Codec ID : 2000
Duration : 1h 57mn
Bit rate mode : Constant
Bit rate : 128 Kbps
Channel(s) : 2 channels
Channel positions : Front: L R
Sampling rate : 48.0 KHz
Bit depth : 16 bits
Compression mode : Lossy
Stream size : 107 MiB (15%)
Alignment : Aligned on interleaves
Interleave, duration : 32 ms (0.80 video frame)


Poster:

 
image


Screenshots:

 
image

 
image

 
image


SEED AND ENJOY!		
The Company You Keep 2012 DVDRip XviD AC3 -TODE/www.RARBG.com.txt 45 B
The Company You Keep 2012 DVDRip XviD AC3 -TODE/The Company You Keep 2012 DVDRip XviD AC3 -TODE.avi 737.177 MB
Gathering some info...

Register and log in Isohunt and see no captcha anymore!

4000 symbols left
Hash 745b05439f5c8e2d7f3e09246dd0dc4f41c68dfe

Related torrents for "The Company You Keep 2012 DVDRip XviD AC3 -TODE"

Torrent search:

dvdrip 2012