badass showdown 2013 ENG.mkv

Size 488.635 MB   0 seeders     Added 2013-04-15 00:24:36

Stream torrent
Starting‥ You need BitLord! Get it from 1BitLord.com
To download or stream you need BitLord. Visit them at BitLord.com
Format                         : Flash Video
File size                      : 318 MiB
Duration                       : 1h 16mn
Overall bit rate               : 581 Kbps
httphostheader                 : r13---sn-h557snez.googlevideo.com
Video
Format                         : AVC
Format/Info                    : Advanced Video Codec
Format profile                 : Main@L3.0
Format settings, CABAC         : Yes
Format settings, ReFrames      : 3 frames
Format settings, GOP           : M=1, N=48
Codec ID                       : 7
Duration                       : 1h 16mn
Bit rate                       : 476 Kbps
Width                          : 640 pixels
Height                         : 360 pixels
Display aspect ratio           : 16:9
Frame rate mode                : Constant
Frame rate                     : 23.976 fps
Color space                    : YUV
Chroma subsampling             : 4:2:0
Bit depth                      : 8 bits
Scan type                      : Progressive
Bits/(Pixel*Frame)             : 0.086
Stream size                    : 261 MiB (82%)
Audio
Format                         : AAC
Format/Info                    : Advanced Audio Codec
Format profile                 : LC
Codec ID                       : 10
Duration                       : 1h 16mn
Bit rate                       : 96.7 Kbps
Channel(s)                     : 1 channel
Channel positions              : Front: C
Sampling rate                  : 44.1 KHz
Compression mode               : Lossy
Stream size                    : 53.0 MiB (17%)
badass showdown 2013 ENG.mkv 488.635 MB
Gathering some info...

Register and log in Isohunt and see no captcha anymore!

4000 symbols left
Hash 1071b7799d3d85a1919ff3bb0be688e4fe118c7a

Related torrents for "badass showdown 2013 ENG.mkv"

Torrent search:

english 2013