imdb
rating

7.5
Any Day Now

Any Day Now (2012)

Drama

Full description
quality   x264 hd bd dvdrip

Any.Day.Now.2012 BRRip XViD juggs

Size 739.864 MB   0 seeders     Added 2013-04-15 06:32:49

Stream torrent
Starting‥ You need BitLord! Get it from 1BitLord.com
To download or stream you need BitLord. Visit them at BitLord.com
Source : 720 Japhson (Thanks)
 
http://www.imdb.com/title/tt2066176/


Format                                   : AVI
Format/Info                              : Audio Video Interleave
File size                                : 699 MiB
Duration                                 : 1h 38mn
Overall bit rate                         : 996 Kbps
Writing library                          : VirtualDub build 32842/release

Video
ID                                       : 0
Format                                   : MPEG-4 Visual
Format profile                           : Advanced Simple@L5
Format settings, BVOP                    : 4
Format settings, QPel                    : No
Format settings, GMC                     : No warppoints
Format settings, Matrix                  : Default (H.263)
Muxing mode                              : Packed bitstream
Codec ID                                 : XVID
Codec ID/Hint                            : XviD
Duration                                 : 1h 38mn
Bit rate                                 : 859 Kbps
Width                                    : 640 pixels
Height                                   : 272 pixels
Display aspect ratio                     : 2.35:1
Frame rate                               : 23.976 fps
Color space                              : YUV
Chroma subsampling                       : 4:2:0
Bit depth                                : 8 bits
Scan type                                : Progressive
Compression mode                         : Lossy
Bits/(Pixel*Frame)                       : 0.206
Stream size                              : 602 MiB (86%)
Writing library                          : XviD 1.2.0.dev47 (UTC 2006-11-01)

Audio
ID                                       : 1
Format                                   : MPEG Audio
Format version                           : Version 1
Format profile                           : Layer 3
Codec ID                                 : 55
Codec ID/Hint                            : MP3
Duration                                 : 1h 38mn
Bit rate mode                            : Constant
Bit rate                                 : 128 Kbps
Channel(s)                               : 2 channels
Sampling rate                            : 44.1 KHz
Compression mode                         : Lossy
Stream size                              : 89.8 MiB (13%)
Alignment                                : Split accross interleaves
Interleave, duration                     : 42 ms (1.00 video frame)
Interleave, preload duration             : 500 ms
Writing library                          : LAME3.99r
Encoding settings                        : -m s -V 4 -q 3 -lowpass 17 -b 128

Plot
In the 1970s, a gay couple fights a biased legal system to keep custody of the abandoned mentally handicapped teenager that comes to live under their roof. 
 
image 
image 
image		
Any.Day.Now.2012 BRRip XViD juggs/Any.Day.Now.2012 BRRip XViD juggs.avi 732.862 MB
Any.Day.Now.2012 BRRip XViD juggs/Torrent Downloaded From ExtraTorrent.com.txt 339 B
Any.Day.Now.2012 BRRip XViD juggs/sample.avi 7.002 MB
Gathering some info...

Register and log in Isohunt and see no captcha anymore!

4000 symbols left
Hash 2a675440d439fbd7150418b6c3b3a440667d3db3

Related torrents for "Any.Day.Now.2012 BRRip XViD juggs"

Torrent search:

2012 bd