Calvin Harris Ft. Florence Welch - Sweet Nothing [Music Video] 1080p [Sbyky].mp4 Verified

Size 101.964 MB   0 seeders     Added 2013-04-15 13:49:47

Stream torrent
Starting‚Ä• You need BitLord! Get it from BitLord.com
To download or stream you need BitLord. Visit them at BitLord.com
[IMG]image[/IMG]

General
Complete name                            : Calvin Harris Ft. Florence Welch - Sweet Nothing [Music Video] 1080p [Sbyky].mp4
Format                                   : MPEG-4
Format profile                           : Base Media / Version 2
Codec ID                                 : mp42
File size                                : 97.2 MiB
Duration                                 : 4mn 28s
Overall bit rate mode                    : Variable
Overall bit rate                         : 3 034 Kbps
Encoded date                             : UTC 2013-04-08 02:56:10
Tagged date                              : UTC 2013-04-08 02:56:10

Video
ID                                       : 1
Format                                   : AVC
Format/Info                              : Advanced Video Codec
Format profile                           : High@L4.0
Format settings, CABAC                   : Yes
Format settings, ReFrames                : 1 frame
Codec ID                                 : avc1
Codec ID/Info                            : Advanced Video Coding
Duration                                 : 4mn 28s
Bit rate                                 : 2 840 Kbps
Maximum bit rate                         : 6 952 Kbps
Width                                    : 1 920 pixels
Height                                   : 1 080 pixels
Display aspect ratio                     : 16:9
Frame rate mode                          : Constant
Frame rate                               : 25.000 fps
Color space                              : YUV
Chroma subsampling                       : 4:2:0
Bit depth                                : 8 bits
Scan type                                : Progressive
Bits/(Pixel*Frame)                       : 0.055
Stream size                              : 91.0 MiB (94%)
Tagged date                              : UTC 2013-04-08 02:56:17

Audio
ID                                       : 2
Format                                   : AAC
Format/Info                              : Advanced Audio Codec
Format profile                           : LC
Codec ID                                 : 40
Duration                                 : 4mn 28s
Bit rate mode                            : Variable
Bit rate                                 : 192 Kbps
Maximum bit rate                         : 201 Kbps
Channel(s)                               : 2 channels
Channel positions                        : Front: L R
Sampling rate                            : 44.1 KHz
Compression mode                         : Lossy
Stream size                              : 6.15 MiB (6%)
Title                                    : IsoMedia File Produced by Google, 5-11-2011
Encoded date                             : UTC 2013-04-08 02:56:15
Tagged date                              : UTC 2013-04-08 02:56:17

Shared By Sbyky
[IMG]image[/IMG]
[IMG]image[/IMG]		
Calvin Harris Ft. Florence Welch - Sweet Nothing [Music Video] 1080p [Sbyky].mp4 101.964 MB
Gathering some info...

Register and log in Isohunt and see no captcha anymore!

4000 symbols left
Hash fe433efcddac0c5e34ecbb0f8f7f96df91ff59d5