imdb
rating

4.6
Under the Bed

Under the Bed (2012)

Horror

Full description
quality   dvdrip x264 fullhd bd hd

Under The Bed 2012 BRRIP Xvid AC3-BHRG

Size 1.533 GB   0 seeders     Added 2013-04-15 17:31:36

Stream torrent
Starting‥ You need BitLord! Get it from 1BitLord.com
To download or stream you need BitLord. Visit them at BitLord.com
File size: 1.41 GiB
Duration: 1h 26mn
Overall bit rate: 2 322 Kbps

Video
ID: 0
Format: MPEG-4 Visual
Format profile: Advanced Simple@L5
Format settings, BVOP: 2
Format settings, QPel: No
Format settings, GMC: No warppoints
Format settings, Matrix: Default (H.263)
Codec ID: XVID
Codec ID/Hint: XviD
Duration: 1h 26mn
Bit rate: 1 866 Kbps
Width: 704 pixels
Height: 288 pixels
Display aspect ratio: 2.40:1
Frame rate: 23.976 fps
Color space: YUV
Chroma subsampling: 4:2:0
Bit depth: 8 bits
Scan type: Progressive
Compression mode: Lossy
Bits/(Pixel*Frame): 0.384
Stream size: 1.13 GiB (80%)
Writing library: XviD 1.2.1 (UTC 2008-12-04)

Audio
ID: 1
Format: AC-3
Format/Info: Audio Coding 3
Mode extension: CM (complete main)
Format settings, Endianness: Big
Codec ID: 2000
Duration: 1h 26mn
Bit rate mode: Constant
Bit rate: 448 Kbps
Channel(s): 6 channels
Channel positions: Front: L C R, Side: L R, LFE
Sampling rate: 48.0 KHz
Bit depth: 16 bits
Compression mode: Lossy
Stream size: 279 MiB (19%)
Alignment: Aligned on interleaves
Interleave, duration: 64 ms (1.53 video frames)
Interleave, preload duration: 192 ms
Title: Under.The.Bed.2012.720p.BRRiP.XViD.AC3-LEGi0N.avi_track_1_

IMDB[url][/url]

source >>>>>>LEGi0N..... thanks guys

sample provided

Screens:
 
image 
image 
image 
image		
Under The Bed 2012 BRRIP Xvid AC3-BHRG/www.RARBG.com.txt 45 B
Under The Bed 2012 BRRIP Xvid AC3-BHRG/Under.The.Bed.2012.BRRIP.Xvid.AC3-BHRG.avi 1.515 GB
Under The Bed 2012 BRRIP Xvid AC3-BHRG/Under.The.Bed.2012.BRRIP.Xvid.AC3-BHRG sample.avi 18.903 MB
Gathering some info...

Register and log in Isohunt and see no captcha anymore!

4000 symbols left
Hash f4fda2d97f81c8b88502b638ea467128e4a918de

Related torrents for "Under The Bed 2012 BRRIP Xvid AC3-BHRG"

Torrent search:

2012 bd