imdb
rating

2.2
Paranormal Movie

Paranormal Movie (2013)

Comedy

Full description

Paranormal.Movie.2013.UNRATED.WEBRip XViD juggs

Size 742.006 MB   0 seeders     Added 2013-04-15 20:46:35

Stream torrent
Starting‥ You need BitLord! Get it from BitLord.com
To download or stream you need BitLord. Visit them at BitLord.com
Source : NGB(Thanks)
 
http://www.imdb.com/title/tt2392846/


Format                                   : AVI
Format/Info                              : Audio Video Interleave
File size                                : 700 MiB
Duration                                 : 1h 27mn
Overall bit rate                         : 1 116 Kbps
Writing library                          : VirtualDub build 32842/release

Video
ID                                       : 0
Format                                   : MPEG-4 Visual
Format profile                           : Advanced Simple@L5
Format settings, BVOP                    : 2
Format settings, QPel                    : No
Format settings, GMC                     : No warppoints
Format settings, Matrix                  : Default (H.263)
Muxing mode                              : Packed bitstream
Codec ID                                 : XVID
Codec ID/Hint                            : XviD
Duration                                 : 1h 27mn
Bit rate                                 : 978 Kbps
Width                                    : 640 pixels
Height                                   : 352 pixels
Display aspect ratio                     : 16:9
Frame rate                               : 23.976 fps
Color space                              : YUV
Chroma subsampling                       : 4:2:0
Bit depth                                : 8 bits
Scan type                                : Progressive
Compression mode                         : Lossy
Bits/(Pixel*Frame)                       : 0.181
Stream size                              : 614 MiB (88%)
Writing library                          : XviD 1.2.0.dev47 (UTC 2006-11-01)

Audio
ID                                       : 1
Format                                   : MPEG Audio
Format version                           : Version 1
Format profile                           : Layer 3
Codec ID                                 : 55
Codec ID/Hint                            : MP3
Duration                                 : 1h 27mn
Bit rate mode                            : Constant
Bit rate                                 : 128 Kbps
Channel(s)                               : 2 channels
Sampling rate                            : 44.1 KHz
Compression mode                         : Lossy
Stream size                              : 80.4 MiB (11%)
Alignment                                : Split accross interleaves
Interleave, duration                     : 42 ms (1.00 video frame)
Interleave, preload duration             : 500 ms
Writing library                          : LAME3.99r
Encoding settings                        : -m s -V 4 -q 3 -lowpass 17 -b 128

 
image 
image 
image		
Paranormal.Movie.2013.UNRATED.WEBRip XViD juggs/Paranormal.Movie.2013.UNRATED.WEBRip XViD juggs.avi 734.364 MB
Paranormal.Movie.2013.UNRATED.WEBRip XViD juggs/Torrent Downloaded From ExtraTorrent.com.txt 339 B
Paranormal.Movie.2013.UNRATED.WEBRip XViD juggs/sample.avi 7.641 MB
Gathering some info...

Register and log in Isohunt and see no captcha anymore!

4000 symbols left
Hash c266883ef5ec1e1808e5e2df12c689627cab57b8

Related torrents for "Paranormal.Movie.2013.UNRATED.WEBRip XViD juggs"

Torrent search:

web-rip 2013