imdb
rating

6.2
Broken City

Broken City (2013)

Crime, Drama, Thriller

Full description

[ www.Speed.Cd ] - Broken.City.2013.BRRip.XviD.RoSubbed-playXD

Size 736.974 MB   0 seeders     Added 2013-04-15 23:37:36

Stream torrent
Starting‥ You need BitLord! Get it from BitLord.com
To download or stream you need BitLord. Visit them at BitLord.com
-
 
http://www.Speed. Cd       the fast  and The Hottest Private Tracker on the net 
http://www.Speed. Cd

Please Seed back to make the speed Faster!!
 ............ NFO .............
-
 
http://www.Speed. CdGeneral
Complete name                            : D:encodeBroken.City.2013.BRRip.XviD.RoSubbed-playXDBroken.City.2013.BRRip.XviD.RoSubbed-playXD.avi
Format                                   : AVI
Format/Info                              : Audio Video Interleave
File size                                : 695 MiB
Duration                                 : 1h 48mn
Overall bit rate                         : 894 Kbps

Video
ID                                       : 0
Format                                   : MPEG-4 Visual
Format profile                           : Advanced Simple@L5
Format settings, BVOP                    : 2
Format settings, QPel                    : No
Format settings, GMC                     : No warppoints
Format settings, Matrix                  : Default (H.263)
Codec ID                                 : XVID
Codec ID/Hint                            : XviD
Duration                                 : 1h 48mn
Bit rate                                 : 760 Kbps
Width                                    : 640 pixels
Height                                   : 272 pixels
Display aspect ratio                     : 2.35:1
Frame rate                               : 23.976 fps
Color space                              : YUV
Chroma subsampling                       : 4:2:0
Bit depth                                : 8 bits
Scan type                                : Progressive
Compression mode                         : Lossy
Bits/(Pixel*Frame)                       : 0.182
Stream size                              : 591 MiB (85%)
Writing library                          : XviD 1.2.1 (UTC 2008-12-04)

Audio
ID                                       : 1
Format                                   : MPEG Audio
Format version                           : Version 1
Format profile                           : Layer 3
Mode                                     : Joint stereo
Mode extension                           : MS Stereo
Codec ID                                 : 55
Codec ID/Hint                            : MP3
Duration                                 : 1h 48mn
Bit rate mode                            : Constant
Bit rate                                 : 128 Kbps
Channel(s)                               : 2 channels
Sampling rate                            : 48.0 KHz
Compression mode                         : Lossy
Stream size                              : 99.5 MiB (14%)
Alignment                                : Aligned on interleaves
Interleave, duration                     : 167 ms (4.00 video frames)
Interleave, preload duration             : 216 ms
Title                                    : daa-broken.city-720p - [2] English_audio
Writing library                          : LAME3.99r
Encoding settings                        : -m j -V 4 -q 2 -lowpass 17 -b 128		
[ www.Speed.Cd ] - Broken.City.2013.BRRip.XviD.RoSubbed-playXD/Broken.City.2013.BRRip.XviD.RoSubbed-playXD.avi 728.343 MB
[ www.Speed.Cd ] - Broken.City.2013.BRRip.XviD.RoSubbed-playXD/Broken.City.2013.BRRip.XviD.RoSubbed-playXD.srt 125.51 KB
[ www.Speed.Cd ] - Broken.City.2013.BRRip.XviD.RoSubbed-playXD/nfo.nfo 2.871 KB
Gathering some info...

Register and log in Isohunt and see no captcha anymore!

4000 symbols left
Hash 2f058b9de4e2c59b14aaf7a7dbc1d9d1bba6437d

Related torrents for "[ www.Speed.Cd ] - Broken.City.2013.BRRip.XviD.RoSubbed-playXD"

Torrent search:

bd 2013