imdb
rating

6.3
The General's Daughter

The General's Daughter (1999)

Drama, Mystery, Thriller

Full description

[ www.Speed.Cd ] - The.General's.Daughter.1999.DVDRip.XviD-iND

Size 838.424 MB   0 seeders     Added 2013-04-16 04:31:39

Stream torrent
Starting‥ You need BitLord! Get it from BitLord.com
To download or stream you need BitLord. Visit them at BitLord.com
-
 
http://www.Speed. Cd       the fast  and The Hottest Private Tracker on the net 
http://www.Speed. Cd

Please Seed back to make the speed Faster!!
 ............ NFO .............
-
 
http://www.Speed. CdThe.General's.Daughter.1999.DVDRip.XviD-iND

Format                                   : AVI
Format/Info                              : Audio Video Interleave
File size                                : 800 MiB
Duration                                 : 1h 56mn
Overall bit rate mode                    : Variable
Overall bit rate                         : 961 Kbps
Writing application                      : VirtualDubMod 1.4.13
Writing library                          : VirtualDub build 14328/release

Video
ID                                       : 0
Format                                   : MPEG-4 Visual
Format profile                           : Advanced Simple@L5
Format settings, BVOP                    : 2
Format settings, QPel                    : Yes
Format settings, GMC                     : No warppoints
Format settings, Matrix                  : Default (H.263)
Muxing mode                              : Packed bitstream
Codec ID                                 : XVID
Codec ID/Hint                            : XviD
Duration                                 : 1h 56mn
Bit rate                                 : 819 Kbps
Width                                    : 704 pixels
Height                                   : 304 pixels
Display aspect ratio                     : 2.35:1
Frame rate                               : 23.976 fps
Color space                              : YUV
Chroma subsampling                       : 4:2:0
Bit depth                                : 8 bits
Scan type                                : Progressive
Compression mode                         : Lossy
Bits/(Pixel*Frame)                       : 0.160
Stream size                              : 682 MiB (85%)
Writing library                          : XviD 1.1.0 Beta2 (UTC 2005-04-04)

Audio
ID                                       : 1
Format                                   : MPEG Audio
Format version                           : Version 1
Format profile                           : Layer 3
Mode                                     : Joint stereo
Mode extension                           : MS Stereo
Codec ID                                 : 55
Codec ID/Hint                            : MP3
Duration                                 : 1h 56mn
Bit rate mode                            : Variable
Bit rate                                 : 128 Kbps
Channel(s)                               : 2 channels
Sampling rate                            : 48.0 KHz
Compression mode                         : Lossy
Stream size                              : 107 MiB (13%)
Alignment                                : Aligned on interleaves
Interleave, duration                     : 24 ms (0.58 video frame)
Interleave, preload duration             : 137 ms
Writing library                          : LAME3.90.
Encoding settings                        : -m j -V 4 -q 2 -lowpass 17.6 --abr 128 
http://www.imdb.com/title/tt0144214/		
[ www.Speed.Cd ] - The.General's.Daughter.1999.DVDRip.XviD-iND/The.General's.Daughter.1999.DVDRip.XviD-iND.avi 838.42 MB
[ www.Speed.Cd ] - The.General's.Daughter.1999.DVDRip.XviD-iND/The.General's.Daughter.1999.DVDRip.XviD-iND.nfo 2.92 KB
[ www.Speed.Cd ] - The.General's.Daughter.1999.DVDRip.XviD-iND/www.scenetime.com.txt 55 B
Gathering some info...

Register and log in Isohunt and see no captcha anymore!

4000 symbols left
Hash 25ce0e62f1bfb84e5f49d8814ddaed7ded5e5a3e

Related torrents for "[ www.Speed.Cd ] - The.General's.Daughter.1999.DVDRip.XviD-iND"

Torrent search:

dvdrip 1999