imdb
rating

7.0
The Psychic

The Psychic (1977)

Horror, Thriller, Foreign

Full description
quality   dvdrip

The Psychic (1977).mkv

Size 1.401 GB   0 seeders     Added 2013-04-16 09:32:35

Stream torrent
Starting‥ You need BitLord! Get it from BitLord.com
To download or stream you need BitLord. Visit them at BitLord.com
Unique ID : 25144630503835058648634268892213104977 (0x12EAADFFB0F5D425E266D5300CD15151)
Complete name : /home/gj5/home/data/The Psychic (1977).mkv
Format : Matroska
Format version : Version 2
File size : 1.30 GiB
Duration : 1h 37mn
Overall bit rate : 1 917 Kbps
Movie name : Avidemux
Writing application : Lavf52.78.3
Writing library : Lavf52.78.3

Video
ID : 1
Format : AVC
Format/Info : Advanced Video Codec
Format profile : High@L3.0
Format settings, CABAC : Yes
Format settings, ReFrames : 4 frames
Format settings, GOP : M=4, N=7
Codec ID : V_MPEG4/ISO/AVC
Duration : 1h 37mn
Bit rate : 1 721 Kbps
Width : 704 pixels
Height : 384 pixels
Display aspect ratio : 16:9
Frame rate mode : Variable
Frame rate : 29.970 fps
Color space : YUV
Chroma subsampling : 4:2:0
Bit depth : 8 bits
Scan type : Progressive
Bits/(Pixel*Frame) : 0.212
Stream size : 1.15 GiB (88%)
Writing library : x264 core 106 r1732 b20059a
Encoding settings : cabac=1 / ref=3 / deblock=1:0:0 / analyse=0x3:0x113 / me=hex / subme=7 / psy=1 / psy_rd=1.00:0.00 / mixed_ref=1 / me_range=16 / chroma_me=1 / trellis=1 / 8x8dct=1 / cqm=0 / deadzone=21,11 / fast_pskip=1 / chroma_qp_offset=-2 / threads=3 / sliced_threads=0 / nr=0 / decimate=1 / interlaced=0 / constrained_intra=0 / bframes=3 / b_pyramid=2 / b_adapt=1 / b_bias=0 / direct=1 / weightb=1 / open_gop=0 / weightp=2 / keyint=250 / keyint_min=25 / scenecut=40 / intra_refresh=0 / rc_lookahead=40 / rc=2pass / mbtree=1 / bitrate=1721 / ratetol=1.0 / qcomp=0.60 / qpmin=10 / qpmax=51 / qpstep=4 / cplxblur=20.0 / qblur=0.5 / ip_ratio=1.40 / aq=1:1.00
Language : English

Audio
ID : 2
Format : AC-3
Format/Info : Audio Coding 3
Mode extension : CM (complete main)
Codec ID : A_AC3
Duration : 1h 37mn
Bit rate mode : Constant
Bit rate : 192 Kbps
Channel(s) : 2 channels
Channel positions : Front: L R
Sampling rate : 48.0 KHz
Bit depth : 16 bits
Compression mode : Lossy
Delay relative to video : -33ms
Stream size : 134 MiB (10%)
Language : English
		
The Psychic (1977).mkv 1.401 GB
Gathering some info...

Register and log in Isohunt and see no captcha anymore!

4000 symbols left
Hash 1ab2737bd38d1d7b3ff6f3144a33f6ed6e19d3ad

Related torrents for "The Psychic (1977).mkv"

Torrent search:

1977