Railway.Platform.1955.DVDRip.x264.RRG.DADA.DBBians.Com

Size 641.87 MB   0 seeders     Added 2013-04-16 14:39:50

Stream torrent
Starting‚Ä• You need BitLord! Get it from BitLord.com
To download or stream you need BitLord. Visit them at BitLord.com
Click To Enlarge 


-: Cover :-

    	image






    	image
    	image
    	image
    	image
    	image
    	image
    	image
    	image
    	image
    	image
    	image



-: Info :-

General

Format                           : MP4 Video
File size                        : 612 MiB
Duration                         : 2h 11mn
Overall bit rate                 : 649 Kbps
Video
Format                           : AVC
Format/Info                      : Advanced Video Codec
Format profile                   : Main@L3.0
Format settings, CABAC           : Yes
Format settings, ReFrames        : 3 frames
Duration                         : 2h 11mn
Bit rate                         : 512 Kbps
Width                            : 640 pixels
Height                           : 480 pixels
Display aspect ratio             : 4:3
Frame rate mode                  : Constant
Frame rate                       : 25.000 fps
Color space                      : YUV
Chroma subsampling               : 4:2:0
Bit depth                        : 8 bits
Scan type                        : Progressive
Bits/(Pixel*Frame)               : 0.067
Stream size                      : 483 MiB (79%)

Audio
Format                           : AAC
Format/Info                      : Advanced Audio Codec
Format version                   : Version 4
Format profile                   : LC
Format settings, SBR             : No
Duration                         : 2h 11mn
Bit rate                         : 129 Kbps
Channel(s)                       : 2 channels
Channel positions                : Front: L R
Sampling rate                    : 44.1 KHz
Bit depth                        : 16 bits
Stream size                      : 121 MiB (20%)


 
http://www.imdb.com/title/tt0048537/


Directed by
Ramesh Saigal	 	
 
Writing credits
Ramesh Saigal	 	story, screenplay, dialogue and
Manmohan Krishna	 	assistant writer

Cast (in credits order) complete, awaiting verification

	Nalini Jaywant	... 	Naina
	Sheila Ramani	... 	Rajkumari Indira
	Johnny Walker	... 	Nasibchand (as Johny Walker)
	Sunil Dutt	... 	Ram
	Manmohan Krishna	... 	Kavi (as Manmohan Krishna)
	Leela Mishra	... 	Ram's Mom (as Leela Misra)
	Raj Mehra	... 	Raja Adiraj
	Nishi	... 	Mrs. Kapoor
	Renu Maker	... 	Vimla
	Shukla		
	Sheela R.		(as Baby Sheela)
	Jagdeep	... 	Purse-Snatcher
	Tun Tun		(as Uma Devi)
	Nana Palsikar	... 	Station Master
	T.N. Charlie		
	Narbhadashanker		
	S. Sethi		(as S. Sethy)

Produced by
Mulraj Kapadia	.... 	supervising producer
Kewal Krishan	.... 	producer (as Keval Krishan)
 
Original Music by
Madan Mohan	 	(music)
 
Cinematography by
Dronacharyya	 	(director of photography) (as Dronacharya)
 
Film Editing by
Baburao Barodkar	 	
 
Art Direction by
D.S. Malvankar	 	
 
Makeup Department
Lilabai Deshpande	.... 	hair stylist (as Leela Bai)
Belchar Pereira	.... 	makeup artist (as Pareira)
 
Art Department
Randhir Mistry	.... 	set designer
Shyam	.... 	set dresser
 
Sound Department
Mukul Bose	.... 	sound director
Y.M. Wagle	.... 	sound recordist
 
Music Department
Asha Bhosle	.... 	playback singer
Sahir Ludhianvi	.... 	lyrics
Lata Mangeshkar	.... 	playback singer
Mohammad Rafi	.... 	playback singer
 
Other crew
Husein Saleh	.... 	public relations
Chimanlal M. Shah	.... 	production secretary


While passing through Andher Nagri, a long-distance train comes to an unexpected halt. Passengers, including Kavi and unemployed Ram, who is traveling with his widowed mother and sister, Vimla, alight to inquire from the Station Master. They are told that due to railways lines being washed away, the train has been delayed for 24 hours. A businessman, Nasibchand, and his wife, quickly make their way to a nearby business, owned by Naina and her widowed father, and rent it for the day. Hoping to profit by selling food and water to stranded passengers, he hires passengers who can cook and draw water from the well and sell it to other passengers. Ram becomes the local hero when he rescues Naina from the well, and she falls in love with him. Little does she know that he will soon make plans to wed Rajkumari Indira - the runaway daughter of Raja Adiraj - a decision that will change everyone's lives - while others, including a Pandit and a thief, prepare to carry out their very own respective.

		
Railway.Platform.1955.DVDRip.x264.RRG.DADA.DBBians.Com/Railway.Platform.1955.DVDRip.x264.RRG.DADA.DBBians.Com.mp4 641.743 MB
Railway.Platform.1955.DVDRip.x264.RRG.DADA.DBBians.Com/oldrrg.jpg 127.161 KB
Gathering some info...

Register and log in Isohunt and see no captcha anymore!

4000 symbols left
Hash 75a5cd0c928f84ffa83255583a243ad948a59030