imdb
rating

5.0
Survival of the Dead

Survival of the Dead (2009)

Horror, Science Fiction

Full description
quality   dvdrip bd x264 hd fullhd h264

Survival.of.the.Dead.2009.DVDRip.SweSub.Xvid Verified

Size 733.963 MB   0 seeders     Added 2013-04-16 15:24:36

Stream torrent
Starting‥ You need BitLord! Get it from BitLord.com
To download or stream you need BitLord. Visit them at BitLord.com
                       Swedish Hardsub
http://www.imdb.com/title/tt1134854/
General
Complete name          : Survival.of.the.Dead.2009.DVDRip.SweSub.Xvid.avi
Format                              : AVI
Format/Info                         : Audio Video Interleave
File size                           : 700 MiB
Duration                            : 1h 26mn
Video
ID                                  : 0
Format                              : MPEG-4 Visual
Format profile                      : Advanced Simple@L5
Format settings, BVOP               : 2
Format settings, QPel               : No
Format settings, GMC                : No warppoints
Format settings, Matrix             : Default (H.263)
Muxing mode                         : Packed bitstream
Codec ID                            : XVID
Codec ID/Hint                       : XviD
Duration                            : 1h 26mn
Bit rate                            : 993 Kbps
Width                               : 720 pixels
Height                              : 304 pixels
Display aspect ratio                : 2.35:1
Frame rate                          : 25.000 fps
Color space                         : YUV
Chroma subsampling                  : 4:2:0
Bit depth                           : 8 bits
Scan type                           : Progressive
Compression mode                    : Lossy
Bits/(Pixel*Frame)                  : 0.182
Stream size                         : 612 MiB (87%)
Writing library                     : XviD 73
Audio
ID                                  : 1
Format                              : MPEG Audio
Format version                      : Version 1
Format profile                      : Layer 3
Mode                                : Joint stereo
Mode extension                      : MS Stereo
Codec ID                            : 55
Codec ID/Hint                       : MP3
Duration                            : 1h 26mn
Bit rate mode                       : Variable
Bit rate                            : 128 Kbps
Channel(s)                          : 2 channels
Sampling rate                       : 48.0 KHz
Compression mode                    : Lossy
Stream size                         : 80.5 MiB (11%)
Alignment                           : Aligned on interleaves
Interleave, duration                : 24 ms (0.60 video frame)
Interleave, preload duration        : 141 ms
Writing library                     : LAME3.90.
Encoding settings                   : -m j -V 4 -q 2 -lowpass 17.6 --abr 128
Survival.of.the.Dead.2009.DVDRip.SweSub.Xvid/Survival.of.the.Dead.2009.DVDRip.SweSub.Xvid.avi 733.96 MB
Survival.of.the.Dead.2009.DVDRip.SweSub.Xvid/Survival.of.the.Dead.2009.DVDRip.SweSub.Xvid.avi - MediaInfo.log 2.556 KB
Gathering some info...

Register and log in Isohunt and see no captcha anymore!

4000 symbols left
Hash 2daa4120d6c40d2f11370fe0d719267c2ac9777f

Related torrents for "Survival.of.the.Dead.2009.DVDRip.SweSub.Xvid"

Torrent search:

dvdrip 2009