imdb
rating

6.0
Not Fade Away

Not Fade Away (2012)

Drama

Full description
quality   x264 hd bd dvdrip

Not.Fade.Away.2012 BRRip XViD juggs

Size 742.777 MB   3 seeders     Added 2013-04-17 00:46:38

Stream torrent
Starting‥ You need BitLord! Get it from BitLord.com
To download or stream you need BitLord. Visit them at BitLord.com
Source : GECKOS (Thanks)
 
http://www.imdb.com/title/tt1230215/


Format : AVI
Format/Info : Audio Video Interleave
File size : 702 MiB
Duration : 1h 52mn
Overall bit rate : 875 Kbps
Writing library : VirtualDub build 32842/release

Video
ID : 0
Format : MPEG-4 Visual
Format profile : Advanced Simple@L5
Format settings, BVOP : 4
Format settings, QPel : No
Format settings, GMC : No warppoints
Format settings, Matrix : Default (H.263)
Muxing mode : Packed bitstream
Codec ID : XVID
Codec ID/Hint : XviD
Duration : 1h 52mn
Bit rate : 754 Kbps
Width : 640 pixels
Height : 352 pixels
Display aspect ratio : 16:9
Frame rate : 23.976 fps
Color space : YUV
Chroma subsampling : 4:2:0
Bit depth : 8 bits
Scan type : Progressive
Compression mode : Lossy
Bits/(Pixel*Frame) : 0.140
Stream size : 605 MiB (86%)
Writing library : XviD 1.2.0.dev47 (UTC 2006-11-01)

Audio
ID : 1
Format : MPEG Audio
Format version : Version 1
Format profile : Layer 3
Mode : Joint stereo
Mode extension : MS Stereo
Codec ID : 55
Codec ID/Hint : MP3
Duration : 1h 52mn
Bit rate mode : Constant
Bit rate : 112 Kbps
Channel(s) : 2 channels
Sampling rate : 44.1 KHz
Compression mode : Lossy
Stream size : 89.9 MiB (13%)
Alignment : Split accross interleaves
Interleave, duration : 42 ms (1.00 video frame)
Interleave, preload duration : 500 ms
Writing library : LAME3.98

Plot
Set in suburban New Jersey the 1960s, a group of friends form a rock band and try to make it big.

 
image 
image 
image		
Not.Fade.Away.2012 BRRip XViD juggs/Not.Fade.Away.2012 BRRip XViD juggs.avi 736.569 MB
Not.Fade.Away.2012 BRRip XViD juggs/Torrent Downloaded From ExtraTorrent.com.txt 339 B
Not.Fade.Away.2012 BRRip XViD juggs/sample.avi 6.207 MB
Gathering some info...

Register and log in Isohunt and see no captcha anymore!

4000 symbols left
Hash 17621c085c08c5c2a0aeff400206f0fd6293f077

Related torrents for "Not.Fade.Away.2012 BRRip XViD juggs"

Torrent search:

2012 bd