imdb
rating

6.3
What Richard Did

What Richard Did (2012)

Drama

Full description
quality   dvdrip x264 hd bd fullhd

What.Richard.Did.2012 BRRip XViD juggs

Size 748.535 MB   0 seeders     Added 2013-04-17 06:01:38

Stream torrent
Starting‥ You need BitLord! Get it from BitLord.com
To download or stream you need BitLord. Visit them at BitLord.com
Source : 7SinS (Thanks)
 
http://www.imdb.com/title/tt2092011

Format                                   : AVI
Format/Info                              : Audio Video Interleave
File size                                : 699 MiB
Duration                                 : 1h 27mn
Overall bit rate                         : 1 118 Kbps
Writing library                          : VirtualDub build 32842/release

Video
ID                                       : 0
Format                                   : MPEG-4 Visual
Format profile                           : Advanced Simple@L5
Format settings, BVOP                    : 2
Format settings, QPel                    : No
Format settings, GMC                     : No warppoints
Format settings, Matrix                  : Default (H.263)
Muxing mode                              : Packed bitstream
Codec ID                                 : XVID
Codec ID/Hint                            : XviD
Duration                                 : 1h 27mn
Bit rate                                 : 980 Kbps
Width                                    : 640 pixels
Height                                   : 272 pixels
Display aspect ratio                     : 2.35:1
Frame rate                               : 24.000 fps
Color space                              : YUV
Chroma subsampling                       : 4:2:0
Bit depth                                : 8 bits
Scan type                                : Progressive
Compression mode                         : Lossy
Bits/(Pixel*Frame)                       : 0.235
Stream size                              : 613 MiB (88%)
Writing library                          : XviD 1.2.0.dev47 (UTC 2006-11-01)

Audio
ID                                       : 1
Format                                   : MPEG Audio
Format version                           : Version 1
Format profile                           : Layer 3
Codec ID                                 : 55
Codec ID/Hint                            : MP3
Duration                                 : 1h 27mn
Bit rate mode                            : Constant
Bit rate                                 : 128 Kbps
Channel(s)                               : 2 channels
Sampling rate                            : 44.1 KHz
Compression mode                         : Lossy
Stream size                              : 80.0 MiB (11%)
Alignment                                : Split accross interleaves
Interleave, duration                     : 42 ms (1.00 video frame)
Interleave, preload duration             : 500 ms
Writing library                          : LAME3.99r
Encoding settings                        : -m s -V 4 -q 3 -lowpass 17 -b 128

Plot
What Richard Did follows Richard Karlsen, golden-boy athlete and undisputed alpha-male of his privileged set of South Dublin teenagers, through the summer between the end of school and the beginning of university.
 
image 
image 
image		
What.Richard.Did.2012 BRRip XViD juggs/Torrent Downloaded From ExtraTorrent.com.txt 339 B
What.Richard.Did.2012 BRRip XViD juggs/What.Richard.Did.2012 BRRip XViD juggs.avi 732.53 MB
What.Richard.Did.2012 BRRip XViD juggs/sample.avi 16.005 MB
Gathering some info...

Register and log in Isohunt and see no captcha anymore!

4000 symbols left
Hash f8e48f43273a7d0adfb09ad7ce853c51c7887ceb

Related torrents for "What.Richard.Did.2012 BRRip XViD juggs"

Torrent search:

2012 bd