imdb
rating

6.0
Not Fade Away

Not Fade Away (2012)

Drama

Full description
quality   x264 hd bd dvdrip

Not Fade Away 2012 BRRip 720p x264 AAC - PRiSTiNE [P2PDL]

Size 739.524 MB   27 seeders     Added 2013-04-17 14:16:36

Stream torrent
Starting‥ You need BitLord! Get it from BitLord.com
To download or stream you need BitLord. Visit them at BitLord.com
_________________________  Visit us at _________________________
  
http://p2pdl.com  ____________________________  http://p2pdl.com


Not Fade Away 2012 BRRip 720p x264 AAC - PRiSTiNE [P2PDL]

Genre: Drama
Plot: Set in suburban New Jersey the 1960s, a group of 
friends form a rock band and try to make it big.
Director: David Chase
Stars: John Magaro, Jack Huston, Will Brill
Rated: Rated R for pervasive language, some drug use and sexual content

Info: 
http://www.imdb.com/title/tt1230215/

General
Complete name                  : Not Fade Away 2012 BRRip 720p x264 AAC - PRiSTiNE.mp4
Format                         : MPEG-4
Format profile                 : Base Media
Codec ID                       : isom
File size                      : 701 MiB
Duration                       : 1h 52mn
Overall bit rate mode          : Variable
Overall bit rate               : 874 Kbps

Video
Format                         : AVC
Format/Info                    : Advanced Video Codec
Format profile                 : High 10@L4.1
Bit rate                       : 791 Kbps
Width                          : 1 280 pixels
Height                         : 720 pixels
Display aspect ratio           : 16:9
Frame rate mode                : Constant
Frame rate                     : 23.976 fps
Bit depth                      : 10 bits
Bits/(Pixel*Frame)             : 0.036
Stream size                    : 635 MiB (90%)
Writing library                : x264 core 130 r2273 b3065e6

Audio
Format                         : AAC
Bit rate mode                  : Variable
Bit rate                       : 79.9 Kbps
Channel(s)                     : 2 channels
Channel positions              : Front: L R
Sampling rate                  : 48.0 KHz / 24.0 KHz
Stream size                    : 64.1 MiB (9%)
Language                       : English

Subtitle                       : Yes (English)
Source                         : 720p.BluRay.x264-GECKOS (Thanks)

Screens:
 
image 
image 
image 
image 
image

----------------------------------------------------------------------------------------------------


Encoded using revolutionary 10bit encoding, which enables us to provide you more crispier 
and sharper images at small sizes, just make sure you follow our instructions without a fault.
Recommend to you to use latest version of VLC player. Install K-Lite Codec Pack or shark007 codecs
in case of any kind of problem in playback (For non-VLC Media Player users). Alternatively, install
Core AVC codecs, the fastest decoder that there is coupled with Community Center Codec Pack and play
on Windows Media Player Classic. Check sample to be sure.
Enjoy!

Encoder Notes:Looking For Early Access To Anything You Can Provide DVDScr, R5, DVDR, BluRay, Direct
Audio, Music Releases and Seedboxes. We require dedicated servers, so as to do more 
and fast releases of movies.
If You Got anything to offer please contact us at "prg@hush.com".

Face book Fan Page:   
http://www.fb.me/p2pdl		
Not Fade Away 2012 BRRip 720p x264 AAC - PRiSTiNE [P2PDL]/Not Fade Away 2012 BRRip 720p x264 AAC - PRiSTiNE/Not Fade Away 2012 BRRip 720p x264 AAC - PRiSTiNE.mp4 735.429 MB
Not Fade Away 2012 BRRip 720p x264 AAC - PRiSTiNE [P2PDL]/Sample.mp4 3.997 MB
Not Fade Away 2012 BRRip 720p x264 AAC - PRiSTiNE [P2PDL]/Not Fade Away 2012 BRRip 720p x264 AAC - PRiSTiNE/Not Fade Away 2012 BRRip 720p x264 AAC - PRiSTiNE.srt 92.577 KB
Gathering some info...

Register and log in Isohunt and see no captcha anymore!

4000 symbols left
Hash b9beeede1bd1b5e40d02f19896db905871467bee

Related torrents for "Not Fade Away 2012 BRRip 720p x264 AAC - PRiSTiNE [P2PDL]"

Torrent search:

x264 hd 2012 bd