Maang.Bharo.Sajana.1984.1.3.DVDR.AC.3.Subs.RRG.DADA.DBBians.Com

Size 1.576 GB   0 seeders     Added 2013-04-17 19:17:35

Stream torrent
Starting‥ You need BitLord! Get it from BitLord.com
To download or stream you need BitLord. Visit them at BitLord.com
Click To Enlarge 


-: Cover :-


    	image


-: Screens :-





    	image
    	image
    	image
    	image
    	image
    	image
    	image
    	image
    	image
    	image
    	image
    	image
    	image
    	image
    	image
    	image
    	image

    	image


-: Info :-


General

Format                           : Matroska
File size                        : 1.46 GiB
Duration                         : 2h 27mn
Overall bit rate                 : 1 415 Kbps
Encoded date                     : UTC 2013-04-02 17:24:42
Writing application              : mkvmerge v4.0.0 ('The Stars were mine') gemaakt op Jun  6 2010 16:18:42
Writing library                  : libebml v1.0.0 + libmatroska v1.0.0

Video
ID                               : 1
Format                           : AVC
Format/Info                      : Advanced Video Codec
Format profile                   : High@L3.0
Format settings, CABAC           : Yes
Format settings, ReFrames        : 4 frames
Muxing mode                      : Container profile=Unknown@3.0
Codec ID                         : V_MPEG4/ISO/AVC
Duration                         : 2h 27mn
Bit rate                         : 1 021 Kbps
Width                            : 640 pixels
Height                           : 480 pixels
Display aspect ratio             : 4:3
Frame rate                       : 29.970 fps
Color space                      : YUV
Chroma subsampling               : 4:2:0
Bit depth                        : 8 bits
Scan type                        : Progressive
Bits/(Pixel*Frame)               : 0.111
Stream size                      : 1.04 GiB (71%)
Writing library                  : x264 core 98 r1649 c54c47d

Audio
ID                               : 2
Format                           : AC-3
Format/Info                      : Audio Coding 3
Mode extension                   : CM (complete main)
Codec ID                         : A_AC3
Duration                         : 2h 27mn
Bit rate mode                    : Constant
Bit rate                         : 384 Kbps
Channel(s)                       : 2 channels
Channel positions                : Front: L R
Sampling rate                    : 48.0 KHz
Bit depth                        : 16 bits
Stream size                      : 406 MiB (27%)



Ripper - TDBB
 
http://www.imdb.com/title/tt0260152/

Directed by

Rama Rao Tatineni	 	(as T. Rama Rao)
 
Cast


	Jeetendra	... 	Ram Kumar / Chandru

	Rekha	... 	Radha
	Moushumi Chatterjee	... 	Sita Ram Kumar
	Kaajal Kiran	... 	Geeta Sinha
	Asrani	... 	Jumerati
	Om Shivpuri	... 	Dr. Sinha
	Yunus Parvez	... 	Khan
	Vikas Anand		
	Chandana Choudhary	... 	Shabira Khan
	Mohan Choti	... 	Poojary
	Dheeraj Kumar	... 	Shyam Kumar
	Praveen Paul	... 	Sita's mom

Produced by

Poornachandra Rao Atluri	.... 	producer (as A. Purnachandra Rao)
 
Original Music by
Laxmikant Shantaram Kudalkar	 	(as Laxmikant)
Pyarelal Ramprasad Sharma	 	(as Pyarelal)
 
Music Department
Asha Bhosle	.... 	playback singer
Kavita Krishnamurthy	.... 	playback singer
Kishore Kumar	.... 	playback singer
Lata Mangeshkar	.... 	playback singer
 



Chandru lives in a palatial house with his dad, Ram Kumar; mom Sita; elder brother Shyam and his wife. Chandru is in love with Geeta Sinha, the only daughter of wealthy Dr. Sinha, and would like to marry her. Geeta, too is in love with Chandru and introduces him to her dad. Dr. Sinha has no objections, the young couple are then formally engaged and a wedding date is set. The wedding preparations take place in both the households, and soon the big day arrives. Before the marriage could be formalized, Dr. Sinha asks Ram that he has heard that Chandru is not the son of Sita but of a prostitute named Radha. This shocks everyone present, and it looks like Ram has a lot of explaining to do in order to get his son married or else live with this stigma for the rest of his life.


		
Maang.Bharo.Sajana.1984.1.3.DVDR.AC.3.Subs.RRG.DADA.DBBians.Com/Maang.Bharo.Sajana.1984.1.3.DVDR.AC.3.Subs.RRG.DADA.DBBians.Com.mkv 1.571 GB
Maang.Bharo.Sajana.1984.1.3.DVDR.AC.3.Subs.RRG.DADA.DBBians.Com/Maang.Bharo.Sajana.1984.1.3.DVDR.AC.3.Subs.RRG.DADA.DBBians.Com.sub 5.136 MB
Maang.Bharo.Sajana.1984.1.3.DVDR.AC.3.Subs.RRG.DADA.DBBians.Com/Maang.Bharo.Sajana.1984.1.3.DVDR.AC.3.Subs.RRG.DADA.DBBians.Com.idx 62.588 KB
Gathering some info...

Register and log in Isohunt and see no captcha anymore!

4000 symbols left
Hash d264ca2d2671a0fb9183f1cb19fbf4c345860b25