Will.I.Am Ft. Britney Spears - Scream & Shout [Music Video] 720p [Sbyky].mp4

Size 83.235 MB   0 seeders     Added 2013-04-17 20:02:37

Stream torrent
Starting‥ You need BitLord! Get it from BitLord.com
To download or stream you need BitLord. Visit them at BitLord.com
[IMG]image[/IMG]

General
Complete name                            : Will.I.Am Ft. Britney Spears - Scream & Shout [Music Video] 720p [Sbyky].mp4
Format                                   : MPEG-4
Format profile                           : Base Media / Version 2
Codec ID                                 : mp42
File size                                : 79.4 MiB
Duration                                 : 4mn 51s
Overall bit rate mode                    : Variable
Overall bit rate                         : 2 286 Kbps
Encoded date                             : UTC 2013-04-08 11:31:08
Tagged date                              : UTC 2013-04-08 11:31:08

Video
ID                                       : 1
Format                                   : AVC
Format/Info                              : Advanced Video Codec
Format profile                           : High@L3.1
Format settings, CABAC                   : Yes
Format settings, ReFrames                : 1 frame
Codec ID                                 : avc1
Codec ID/Info                            : Advanced Video Coding
Duration                                 : 4mn 51s
Bit rate                                 : 2 091 Kbps
Maximum bit rate                         : 7 860 Kbps
Width                                    : 1 280 pixels
Height                                   : 720 pixels
Display aspect ratio                     : 16:9
Frame rate mode                          : Constant
Frame rate                               : 23.976 fps
Color space                              : YUV
Chroma subsampling                       : 4:2:0
Bit depth                                : 8 bits
Scan type                                : Progressive
Bits/(Pixel*Frame)                       : 0.095
Stream size                              : 72.6 MiB (91%)
Tagged date                              : UTC 2013-04-08 11:31:15

Audio
ID                                       : 2
Format                                   : AAC
Format/Info                              : Advanced Audio Codec
Format profile                           : LC
Codec ID                                 : 40
Duration                                 : 4mn 51s
Bit rate mode                            : Variable
Bit rate                                 : 192 Kbps
Maximum bit rate                         : 203 Kbps
Channel(s)                               : 2 channels
Channel positions                        : Front: L R
Sampling rate                            : 44.1 KHz
Compression mode                         : Lossy
Stream size                              : 6.67 MiB (8%)
Title                                    : IsoMedia File Produced by Google, 5-11-2011
Encoded date                             : UTC 2013-04-08 11:31:12
Tagged date                              : UTC 2013-04-08 11:31:15

Shared By Sbyky
[IMG]image[/IMG]
[IMG]image[/IMG]		
Will.I.Am Ft. Britney Spears - Scream & Shout [Music Video] 720p [Sbyky].mp4 83.235 MB
Gathering some info...

Register and log in Isohunt and see no captcha anymore!

4000 symbols left
Hash 3a5e915a8f9db888dd4a79d7ce0dcf1ce004c110

Related torrents for "Will.I.Am Ft. Britney Spears - Scream & Shout [Music Video] 720p [Sbyky].mp4"