Commando (2013) DVDScr x264 MP3

Size 789.278 MB   5 seeders     Added 2013-04-17 22:17:50

Stream torrent
Starting‥ You need BitLord! Get it from BitLord.com
To download or stream you need BitLord. Visit them at BitLord.com
Commando (2013)
 
image


[B]INFO[/B]

[CODE]
Format                                   : Matroska
Format version                           : Version 4 / Version 2
File size                                : 748 MiB
Duration                                 : 1h 58mn
Overall bit rate mode                    : Variable
Overall bit rate                         : 880 Kbps
[/CODE]

VIDEO 
[CODE]Format                                   : AVC
Format/Info                              : Advanced Video Codec
Format profile                           : High@L3.0
Format settings, CABAC                   : Yes
Format settings, ReFrames                : 4 frames
Codec ID                                 : V_MPEG4/ISO/AVC
Duration                                 : 1h 58mn
Bit rate                                 : 796 Kbps
Width                                    : 720 pixels
Height                                   : 352 pixels
Display aspect ratio                     : 2.045
Frame rate mode                          : Constant
Frame rate                               : 25.000 fps
Color space                              : YUV
Chroma subsampling                       : 4:2:0
Bit depth                                : 8 bits
Scan type                                : Progressive
Bits/(Pixel*Frame)                       : 0.126
Stream size                              : 665 MiB (89%)[/CODE]

AUDIO
[CODE]Format                                   : MPEG Audio
Format version                           : Version 1
Format profile                           : Layer 3
Mode                                     : Joint stereo
Mode extension                           : MS Stereo
Codec ID                                 : A_MPEG/L3
Codec ID/Hint                            : MP3
Duration                                 : 2h 1mn
Bit rate mode                            : Variable
Bit rate                                 : 80.0 Kbps
Channel(s)                               : 2 channels
Sampling rate                            : 32.0 KHz
Compression mode                         : Lossy
Stream size                              : 69.7 MiB (9%)
Language                                 : Hindi[/CODE]


[B]SCREEN SHOTS[/B]
 
image
 
image
 
image
 
image
 
image
 
image
 
image		
Commando (2013) DVDScr x264 MP3/Commando (2013) DVDScr x264 MP3.mkv 784.436 MB
Commando (2013) DVDScr x264 MP3/Cover.jpg 478.593 KB
Commando (2013) DVDScr x264 MP3/Sample - Commando (2013) DVDScr x264 MP3.mkv 4.364 MB
Gathering some info...

Register and log in Isohunt and see no captcha anymore!

4000 symbols left
Hash b7d811a4111c0f28ed27f1639e01931b72dab53b

Related torrents for "Commando (2013) DVDScr x264 MP3"

Torrent search:

screener x264 2013