imdb
rating

6.0
Don't Tell Mom the Babysitter's Dead

Don't Tell Mom the Babysitter's Dead (1991)

Comedy, Family

Full description
quality   x264 hdtv hd dvdrip

Don't Tell Mom the Babysitter's Dead (1991) 720p AC3 HDTV

Size 2.948 GB   0 seeders     Added 2013-04-17 22:26:34

Stream torrent
Starting‥ You need BitLord! Get it from 1BitLord.com
10
To download or stream you need BitLord. Visit them at BitLord.com
This is my own rip.
Although there is another OK upload of this movie, it has artifacts during many scene changes (conversation between the mom and the babysitter starting at 5:15, which you can compare to the Sample.mkv), and a glitch where 11 frames are dropped at 48:05, and the filesize is much larger than it needs to be.
In addition, IMDB lists the runtime of this movie at 1h 42min, and the DVD runs 1h 41min, while the HDTV showing runs 1h 44min and has pure film cadence.
The DVD is 30fps, and is pure video with no film cadence.  If you alter the HDTV video to 25fps, the DVD audio fits exactly (once the starting offset is correct).
So, I dont know what frame rate this movie should be shown at, but it is smoother in some scenes at 25fps.  So, thats the version here,  but there is also a 24fps audio and batch file (rename it from Make24fpsVersion.txt to run) to re-mux the movie to 24fps if you want that.
General
Unique ID                        : 234894587216096710933557703189288593030 (0xB0B70D4B3EB17604B30111CDE6DA2686)
Format                           : Matroska
Format version                   : Version 4 / Version 2
File size                        : 2.57 GiB
Duration                         : 1h 40mn
Overall bit rate mode            : Variable
Overall bit rate                 : 3 662 Kbps
Encoded date                     : UTC 2013-04-17 04:34:57
Writing application              : mkvmerge v6.1.0 (Old Devil) built on Mar  2 2013 14:32:37
Writing library                  : libebml v1.3.0 + libmatroska v1.4.0
Video
ID                               : 1
Format                           : AVC
Format/Info                      : Advanced Video Codec
Format profile                   : High@L4.1
Format settings, CABAC           : Yes
Format settings, ReFrames        : 7 frames
Codec ID                         : V_MPEG4/ISO/AVC
Duration                         : 1h 40mn
Bit rate mode                    : Variable
Bit rate                         : 3 397 Kbps
Maximum bit rate                 : 14.0 Mbps
Width                            : 1 280 pixels
Height                           : 692 pixels
Display aspect ratio             : 1.850
Frame rate                       : 25.000 fps
Color space                      : YUV
Chroma subsampling               : 4:2:0
Bit depth                        : 8 bits
Scan type                        : Progressive
Bits/(Pixel*Frame)               : 0.153
Stream size                      : 2.39 GiB (93%)
Writing library                  : x264 core 129 r2245 bc13772
Language                         : English
Default                          : Yes
Forced                           : No
Audio
ID                               : 2
Format                           : AC-3
Format/Info                      : Audio Coding 3
Format profile                   : Dolby Digital
Mode extension                   : CM (complete main)
Codec ID                         : A_AC3
Duration                         : 1h 40mn
Bit rate mode                    : Constant
Bit rate                         : 192 Kbps
Channel(s)                       : 2 channels
Channel positions                : Front: L R
Sampling rate                    : 48.0 KHz
Bit depth                        : 16 bits
Compression mode                 : Lossy
Stream size                      : 138 MiB (5%)
Language                         : English
Default                          : Yes
Forced                           : No
Menu
00:00:00.000                     : en:A Summer of Freedom
00:04:22.320                     : en:A Babysitter?
00:09:38.000                     : en:The Babysitters Dead
00:14:02.280                     : en:A FAST Food Experience
00:22:03.680                     : en:From Burger Grease to Executive Elite
00:27:41.000                     : en:What a Drag
00:31:36.200                     : en:Monday Madness
00:37:22.480                     : en:Petty Cash?
00:43:31.440                     : en:I Hate This Part
00:46:26.640                     : en:The Dishes Are Done Man!
00:47:34.560                     : en:Gus and Rose
00:52:33.080                     : en:Bouncing: An Ageless Pasttime
00:57:20.440                     : en:From Bad to Worse
01:03:32.400                     : en:I Should Have Been There
01:08:49.960                     : en:You Have Spent Over $3,000.00!
01:11:12.800                     : en:Dont Give Up Now
01:14:12.680                     : en:Are You with Me?
01:20:04.640                     : en:The Presentation Party
01:26:33.800                     : en:Moms Home!
01:31:20.480                     : en:A Lot to Learn
01:36:23.520                     : en:End Credits
Don't Tell Mom the Babysitter's Dead (1991) 720p AC3 HDTV/Don't Tell Mom the Babysitter's Dead-24fps.ac3 151.37 MB
Don't Tell Mom the Babysitter's Dead (1991) 720p AC3 HDTV/Don't Tell Mom the Babysitter's Dead-24fps.txt 1.243 KB
Don't Tell Mom the Babysitter's Dead (1991) 720p AC3 HDTV/Don't.Tell.Mom.the.Babysitters.Dead.1991.720p.AC3.HDTV.mkv 2.764 GB
Gathering some info...

Register and log in Isohunt and see no captcha anymore!

4000 symbols left
Hash 0424bedb80a3a4909b84b73dd6d4fe2450a62e2c

Related torrents for "Don't Tell Mom the Babysitter's Dead (1991) 720p AC3 HDTV"

Torrent search:

1991 hdtv hd