imdb
rating

7.0
Jack Reacher

Jack Reacher (2012)

Crime, Drama, Thriller

Full description
quality   telesync dvdrip dvd x264 hd bd

Jack.Reacher.2012.BRRip.XViD.AC3-NYDIC

Size 1.958 GB   0 seeders     Added 2013-04-18 02:31:34

Stream torrent
Starting‥ You need BitLord! Get it from BitLord.com
To download or stream you need BitLord. Visit them at BitLord.com
--------------------------------------------

Year: 2012
 7.1/10 
Votes: 40,352 
Runtime: 130 mins
Language: English
Country: USA
All Genres: Action, Crime, Thriller

SUBTiTLES.......: Bulgarian

Screens: 
http://imgsure.com/?p=893317 
http://imgsure.com/?p=936736

Format                           : AVI
Format/Info                      : Audio Video Interleave
Format profile                   : OpenDML
Format settings                  : rec
File size                        : 1.82 GiB
Duration                         : 2h 10mn
Overall bit rate                 : 2 001 Kbps
Writing application              : AVI-Mux GUI 1.17.8.3, Feb 16 201019:42:50

Video
ID                               : 0
Format                           : MPEG-4 Visual
Format profile                   : Advanced Simple@L5
Format settings, BVOP            : 2
Format settings, QPel            : No
Format settings, GMC             : No warppoints
Format settings, Matrix          : Default (H.263)
Muxing mode                      : Packed bitstream
Codec ID                         : XVID
Codec ID/Hint                    : XviD
Duration                         : 2h 10mn
Bit rate                         : 1 548 Kbps
Width                            : 720 pixels
Height                           : 304 pixels
Display aspect ratio             : 2.35:1
Frame rate                       : 23.976 fps
Color space                      : YUV
Chroma subsampling               : 4:2:0
Bit depth                        : 8 bits
Scan type                        : Progressive
Compression mode                 : Lossy
Bits/(Pixel*Frame)               : 0.295
Stream size                      : 1.41 GiB (77%)
Writing library                  : XviD 64

Audio
ID                               : 1
Format                           : AC-3
Format/Info                      : Audio Coding 3
Mode extension                   : CM (complete main)
Codec ID                         : 2000
Duration                         : 2h 10mn
Bit rate mode                    : Constant
Bit rate                         : 448 Kbps
Channel(s)                       : 6 channels
Channel positions                : Front: L C R, Side: L R, LFE
Sampling rate                    : 48.0 KHz
Bit depth                        : 16 bits
Compression mode                 : Lossy
Stream size                      : 418 MiB (22%)
Alignment                        : Aligned on interleaves
Interleave, duration             : 64 ms (1.53 video frames)
Interleave, preload duration     : 192 ms
Title                            : aaa

--------------------------------------------

More at   
http://publichash.com/

--------------------------------------------			
Jack.Reacher.2012.BRRip.XViD.AC3-NYDIC/Jack.Reacher.2012.BRRip.XViD.AC3-NYDIC.avi 1.958 GB
Jack.Reacher.2012.BRRip.XViD.AC3-NYDIC/Jack.Reacher.2012.BRRip.XViD.AC3-NYDIC.nfo 2.432 KB
Jack.Reacher.2012.BRRip.XViD.AC3-NYDIC/Jack.Reacher.2012.BRRip.XViD.AC3-NYDIC.sub 60.643 KB
Gathering some info...

Register and log in Isohunt and see no captcha anymore!

4000 symbols left
Hash 3d86ffd8f69f143e35211761b483fb309c84cd5e

Related torrents for "Jack.Reacher.2012.BRRip.XViD.AC3-NYDIC"

Torrent search:

2012 bd