imdb
rating

5.8
The Guilt Trip

The Guilt Trip (2012)

Comedy

Full description
quality   x264 hd bd dvdrip h264 screener hdtv

[ www.Speed.Cd ] - The.Guilt.Trip.2012.BRRip.X264.AC3-THC

Size 1.498 GB   0 seeders     Added 2013-04-18 03:17:34

Stream torrent
Starting‥ You need BitLord! Get it from BitLord.com
To download or stream you need BitLord. Visit them at BitLord.com
-
 
http://www.Speed. Cd       the fast  and The Hottest Private Tracker on the net 
http://www.Speed. Cd

Please Seed back to make the speed Faster!!
 ............ NFO .............
-
 
http://www.Speed. Cd[center][IMG]image[/IMG][/center]
[center][img]image[/img][/center] 
http://www.imdb.com/title/tt1694020/

Source: Sparks 720p thx:)

The.Guilt.Trip.2012.BRRip.X264.AC3-THC

Format                                   : MPEG-4
Format profile                           : Base Media
Codec ID                                 : isom
File size                                : 1.39 GiB
Duration                                 : 1h 35mn
Overall bit rate mode                    : Variable
Overall bit rate                         : 2 088 Kbps
Encoded date                             : UTC 2013-04-17 02:33:14
Tagged date                              : UTC 2013-04-17 02:33:14

Video
ID                                       : 1
Format                                   : AVC
Format/Info                              : Advanced Video Codec
Format profile                           : High@L4.1
Format settings, CABAC                   : Yes
Format settings, ReFrames                : 5 frames
Codec ID                                 : avc1
Codec ID/Info                            : Advanced Video Coding
Duration                                 : 1h 35mn
Bit rate mode                            : Variable
Bit rate                                 : 1 699 Kbps
Maximum bit rate                         : 40.0 Mbps
Width                                    : 720 pixels
Height                                   : 304 pixels
Display aspect ratio                     : 2.35:1
Frame rate mode                          : Constant
Frame rate                               : 23.976 fps
Color space                              : YUV
Chroma subsampling                       : 4:2:0
Bit depth                                : 8 bits
Scan type                                : Progressive
Bits/(Pixel*Frame)                       : 0.324
Stream size                              : 1.14 GiB (81%)
Writing library                          : x264 core 130 r2273 b3065e6
Encoded date                             : UTC 2013-04-17 02:33:14
Tagged date                              : UTC 2013-04-17 02:33:45

Audio
ID                                       : 2
Format                                   : AC-3
Format/Info                              : Audio Coding 3
Mode extension                           : CM (complete main)
Format settings, Endianness              : Big
Codec ID                                 : ac-3
Duration                                 : 1h 35mn
Bit rate mode                            : Constant
Bit rate                                 : 384 Kbps
Channel(s)                               : 6 channels
Channel positions                        : Front: L C R, Side: L R, LFE
Sampling rate                            : 48.0 KHz
Bit depth                                : 16 bits
Compression mode                         : Lossy
Stream size                              : 263 MiB (18%)
Encoded date                             : UTC 2013-04-17 02:33:43
Tagged date                              : UTC 2013-04-17 02:33:45


[center][img]image[/img][/center]
[center][img]image[/img][/center]
[center][img]image[/img][/center]
[center][img]image[/img][/center]		
[ www.Speed.Cd ] - The.Guilt.Trip.2012.BRRip.X264.AC3-THC/THC-TGT.nfo 6.886 KB
[ www.Speed.Cd ] - The.Guilt.Trip.2012.BRRip.X264.AC3-THC/The.Guilt.Trip.2012.BRRip.X264.AC3-THC.mp4 1.498 GB
[ www.Speed.Cd ] - The.Guilt.Trip.2012.BRRip.X264.AC3-THC/www.scenetime.com.txt 55 B
Gathering some info...

Register and log in Isohunt and see no captcha anymore!

4000 symbols left
Hash 38c74af5317121a9d86d6fe0489d83dbf38e6663

Related torrents for "[ www.Speed.Cd ] - The.Guilt.Trip.2012.BRRip.X264.AC3-THC"

Torrent search:

x264 2012 bd