imdb
rating

7.0
Jack Reacher

Jack Reacher (2012)

Crime, Drama, Thriller

Full description
quality   telesync dvdrip dvd x264 hd bd

Jack Reacher 2012 720p BRRip x264-SSDD (HQ)

Size 3.221 GB   0 seeders     Added 2013-04-18 03:17:36

Stream torrent
Starting‥ You need BitLord! Get it from 1BitLord.com
To download or stream you need BitLord. Visit them at BitLord.com
Source - Jack.Reacher.2012.720p.BluRay.X264-AMIABLE

NOTES - Enjoy.

General
Complete name                            : Jack Reacher 2012 720p BRRip x264-SSDD (HQ).mp4
Format                                   : MPEG-4
Format profile                           : Base Media
Codec ID                                 : isom
File size                                : 3.00 GiB
Duration                                 : 2h 10mn
Overall bit rate mode                    : Variable
Overall bit rate                         : 3 293 Kbps

Video
ID                                       : 1
Format                                   : AVC
Format/Info                              : Advanced Video Codec
Format profile                           : High@L4.1
Format settings, CABAC                   : Yes
Format settings, ReFrames                : 4 frames
Codec ID                                 : avc1
Codec ID/Info                            : Advanced Video Coding
Duration                                 : 2h 10mn
Bit rate                                 : 2 970 Kbps
Maximum bit rate                         : 9 301 Kbps
Width                                    : 1 280 pixels
Height                                   : 544 pixels
Display aspect ratio                     : 2.35:1
Frame rate mode                          : Constant
Frame rate                               : 23.976 fps
Color space                              : YUV
Chroma subsampling                       : 4:2:0
Bit depth                                : 8 bits
Scan type                                : Progressive
Bits/(Pixel*Frame)                       : 0.178
Stream size                              : 2.70 GiB (90%)
Writing library                          : x264 core 130 r2273 b3065e6

Audio
ID                                       : 2
Format                                   : AAC
Format/Info                              : Advanced Audio Codec
Format profile                           : LC
Codec ID                                 : 40
Duration                                 : 2h 10mn
Bit rate mode                            : Variable
Bit rate                                 : 320 Kbps
Maximum bit rate                         : 343 Kbps
Channel(s)                               : 6 channels
Channel positions                        : Front: L C R, Side: L R, LFE
Sampling rate                            : 48.0 KHz
Compression mode                         : Lossy
Stream size                              : 298 MiB (10%)

Screens: 
image 
image 
image 
image		
Jack Reacher 2012 720p BRRip x264-SSDD (HQ)/www.RARBG.com.txt 45 B
Jack Reacher 2012 720p BRRip x264-SSDD (HQ)/Jack Reacher 2012 720p BRRip x264-SSDD (HQ).mp4 3.221 GB
Gathering some info...

Register and log in Isohunt and see no captcha anymore!

4000 symbols left
Hash 4d74ba834996ea7e2f56e7da8603b17cf94a5937

Related torrents for "Jack Reacher 2012 720p BRRip x264-SSDD (HQ)"

Torrent search:

x264 hd 2012 bd