[ www.Speed.Cd ] - Carry On Emmannuelle 1978 DvdRip Xvid - DINGL3DAWN

Size 1.048 GB   0 seeders     Added 2013-04-18 03:46:36

Stream torrent
Starting‚Ä• You need BitLord! Get it from BitLord.com
To download or stream you need BitLord. Visit them at BitLord.com
-
 
http://www.Speed. Cd       the fast  and The Hottest Private Tracker on the net 
http://www.Speed. Cd

Please Seed back to make the speed Faster!!
 ............ NFO .............
-
 
http://www.Speed. Cdhttp://www.imdb.co.uk/title/tt0077300/

[IMG]image[/IMG]

Carry On Emmannuelle 1978 DvdRip Xvid - DINGL3DAWN

General
Complete name                            : Carry On Emmannuelle 1978 DvdRip Xvid - DINGL3DAWN
Format                                   : AVI
Format/Info                              : Audio Video Interleave
File size                                : 1 000 MiB
Duration                                 : 1h 24mn
Overall bit rate                         : 1 655 Kbps
Writing application                      : FairUse Wizard - http://fairusewizard.com
Writing library                          : The best and REALLY easy backup tool

Video
ID                                       : 0
Format                                   : MPEG-4 Visual
Format profile                           : Advanced Simple@L5
Format settings, BVOP                    : 1
Format settings, QPel                    : No
Format settings, GMC                     : No warppoints
Format settings, Matrix                  : Default (H.263)
Muxing mode                              : Packed bitstream
Codec ID                                 : XVID
Codec ID/Hint                            : XviD
Duration                                 : 1h 24mn
Bit rate                                 : 1 517 Kbps
Width                                    : 688 pixels
Height                                   : 384 pixels
Display aspect ratio                     : 16:9
Frame rate                               : 25.000 fps
Color space                              : YUV
Chroma subsampling                       : 4:2:0
Bit depth                                : 8 bits
Scan type                                : Progressive
Compression mode                         : Lossy
Bits/(Pixel*Frame)                       : 0.230
Stream size                              : 916 MiB (92%)
Writing library                          : XviD 1.1.0 (UTC 2005-11-22)

Audio
ID                                       : 1
Format                                   : MPEG Audio
Format version                           : Version 1
Format profile                           : Layer 3
Mode                                     : Joint stereo
Mode extension                           : MS Stereo
Codec ID                                 : 55
Codec ID/Hint                            : MP3
Duration                                 : 1h 24mn
Bit rate mode                            : Constant
Bit rate                                 : 128 Kbps
Channel(s)                               : 2 channels
Sampling rate                            : 48.0 KHz
Compression mode                         : Lossy
Stream size                              : 77.3 MiB (8%)
Alignment                                : Aligned on interleaves
Interleave, duration                     : 40 ms (1.00 video frame)
Interleave, preload duration             : 504 ms
Writing library                          : LAME3.97b
Encoding settings                        : -m j -V 4 -q 2 -lowpass 17 -b 128		
[ www.Speed.Cd ] - Carry On Emmannuelle 1978 DvdRip Xvid - DINGL3DAWN/Carry On Emmannuelle.avi 1.048 GB
[ www.Speed.Cd ] - Carry On Emmannuelle 1978 DvdRip Xvid - DINGL3DAWN/coe.nfo 3.114 KB
[ www.Speed.Cd ] - Carry On Emmannuelle 1978 DvdRip Xvid - DINGL3DAWN/www.scenetime.com.txt 55 B
Gathering some info...

Register and log in Isohunt and see no captcha anymore!

4000 symbols left
Hash 2265cda7b20d254d04f29b56481dc4631f04675a

Related torrents for "[ www.Speed.Cd ] - Carry On Emmannuelle 1978 DvdRip Xvid - DINGL3DAWN"

Torrent search:

dvdrip 1978