imdb
rating

7.0
Jack Reacher

Jack Reacher (2012)

Crime, Drama, Thriller

Full description
quality   telesync dvdrip dvd x264 hd bd

[ www.Speed.Cd ] - Jack.Reacher.2012.BRRip.XviD.AC3.RoSubbed-playXD

Size 1.478 GB   0 seeders     Added 2013-04-18 04:18:37

Stream torrent
Starting‥ You need BitLord! Get it from BitLord.com
To download or stream you need BitLord. Visit them at BitLord.com
-
 
http://www.Speed. Cd       the fast  and The Hottest Private Tracker on the net 
http://www.Speed. Cd

Please Seed back to make the speed Faster!!
 ............ NFO .............
-
 
http://www.Speed. CdGeneral
Complete name                            : D:encodeJack.Reacher.2012.BRRip.XviD.AC3.RoSubbed-playXDJack.Reacher.2012.BRRip.XviD.AC3.RoSubbed-playXD.avi
Format                                   : AVI
Format/Info                              : Audio Video Interleave
File size                                : 1.37 GiB
Duration                                 : 2h 10mn
Overall bit rate                         : 1 499 Kbps

Video
ID                                       : 0
Format                                   : MPEG-4 Visual
Format profile                           : Advanced Simple@L5
Format settings, BVOP                    : 2
Format settings, QPel                    : No
Format settings, GMC                     : No warppoints
Format settings, Matrix                  : Default (H.263)
Codec ID                                 : XVID
Codec ID/Hint                            : XviD
Duration                                 : 2h 10mn
Bit rate                                 : 1 107 Kbps
Width                                    : 720 pixels
Height                                   : 304 pixels
Display aspect ratio                     : 2.35:1
Frame rate                               : 23.976 fps
Color space                              : YUV
Chroma subsampling                       : 4:2:0
Bit depth                                : 8 bits
Scan type                                : Progressive
Compression mode                         : Lossy
Bits/(Pixel*Frame)                       : 0.211
Stream size                              : 1.01 GiB (74%)
Writing library                          : XviD 1.2.1 (UTC 2008-12-04)

Audio
ID                                       : 1
Format                                   : AC-3
Format/Info                              : Audio Coding 3
Mode extension                           : CM (complete main)
Format settings, Endianness              : Big
Codec ID                                 : 2000
Duration                                 : 2h 10mn
Bit rate mode                            : Constant
Bit rate                                 : 384 Kbps
Channel(s)                               : 6 channels
Channel positions                        : Front: L C R, Side: L R, LFE
Sampling rate                            : 48.0 KHz
Bit depth                                : 16 bits
Compression mode                         : Lossy
Stream size                              : 358 MiB (26%)
Alignment                                : Aligned on interleaves
Interleave, duration                     : 64 ms (1.53 video frames)
Interleave, preload duration             : 192 ms
Title                                    : Jack.Reacher.2012.720p.BluRay.X264-AMIABLE (1) - [1] English_audio		
[ www.Speed.Cd ] - Jack.Reacher.2012.BRRip.XviD.AC3.RoSubbed-playXD/Jack.Reacher.2012.BRRip.XviD.AC3.RoSubbed-playXD.avi 1.466 GB
[ www.Speed.Cd ] - Jack.Reacher.2012.BRRip.XviD.AC3.RoSubbed-playXD/Jack.Reacher.2012.BRRip.XviD.AC3.RoSubbed-playXD.srt 100.147 KB
[ www.Speed.Cd ] - Jack.Reacher.2012.BRRip.XviD.AC3.RoSubbed-playXD/playXD.nfo 2.807 KB
Gathering some info...

Register and log in Isohunt and see no captcha anymore!

4000 symbols left
Hash e730e59cb8a048e70aeb88df8307a0f024b66571

Related torrents for "[ www.Speed.Cd ] - Jack.Reacher.2012.BRRip.XviD.AC3.RoSubbed-playXD"

Torrent search:

2012 bd