imdb
rating

4.1
Jacob

Jacob (2011)

Horror

Full description
quality   x264 hd bd fullhd dvdrip h264

Jacob.2011.BRRip XViD juggs

Size 741.862 MB   0 seeders     Added 2013-04-18 06:16:38

Stream torrent
Starting‥ You need BitLord! Get it from BitLord.com
To download or stream you need BitLord. Visit them at BitLord.com
Source : ROVERS(Thanks)
 
http://www.imdb.com/title/tt1801063


Format                                   : AVI
Format/Info                              : Audio Video Interleave
File size                                : 700 MiB
Duration                                 : 1h 31mn
Overall bit rate                         : 1 065 Kbps
Writing library                          : VirtualDub build 32842/release

Video
ID                                       : 0
Format                                   : MPEG-4 Visual
Format profile                           : Advanced Simple@L5
Format settings, BVOP                    : 2
Format settings, QPel                    : No
Format settings, GMC                     : No warppoints
Format settings, Matrix                  : Default (H.263)
Muxing mode                              : Packed bitstream
Codec ID                                 : XVID
Codec ID/Hint                            : XviD
Duration                                 : 1h 31mn
Bit rate                                 : 928 Kbps
Width                                    : 640 pixels
Height                                   : 272 pixels
Display aspect ratio                     : 2.35:1
Frame rate                               : 23.976 fps
Color space                              : YUV
Chroma subsampling                       : 4:2:0
Bit depth                                : 8 bits
Scan type                                : Progressive
Compression mode                         : Lossy
Bits/(Pixel*Frame)                       : 0.222
Stream size                              : 610 MiB (87%)
Writing library                          : XviD 64

Audio
ID                                       : 1
Format                                   : MPEG Audio
Format version                           : Version 1
Format profile                           : Layer 3
Mode                                     : Joint stereo
Mode extension                           : MS Stereo
Codec ID                                 : 55
Codec ID/Hint                            : MP3
Duration                                 : 1h 31mn
Bit rate mode                            : Constant
Bit rate                                 : 128 Kbps
Channel(s)                               : 2 channels
Sampling rate                            : 44.1 KHz
Compression mode                         : Lossy
Stream size                              : 84.2 MiB (12%)
Alignment                                : Split accross interleaves
Interleave, duration                     : 42 ms (1.00 video frame)
Interleave, preload duration             : 500 ms
Writing library                          : LAME3.98

Plot
Lonely and disturbed Jacob Kell loved his little sister more than anything on earth. When tragedy strikes, Jacob retaliates the only way he knows how - and anyone who crosses his path will know there is no limit to his brutal vengeance. 
 
image 
image 
image		
Jacob.2011.BRRip XViD juggs/Jacob.2011.BRRip XViD juggs.avi 734.38 MB
Jacob.2011.BRRip XViD juggs/SAMPLE.avi 7.481 MB
Jacob.2011.BRRip XViD juggs/Torrent Downloaded From ExtraTorrent.com.txt 339 B
Gathering some info...

Register and log in Isohunt and see no captcha anymore!

4000 symbols left
Hash 431c220d22348c53412134c522ce3882cab20023

Related torrents for "Jacob.2011.BRRip XViD juggs"

Torrent search:

bd 2011