imdb
rating

7.0
Jack Reacher

Jack Reacher (2012)

Crime, Drama, Thriller

Full description
quality   telesync dvdrip dvd x264 hd bd

[ www.Speed.Cd ] - Jack.Reacher.2012.BRRip.XviD.Ac3.Feel-Free Verified

Size 1.418 GB   0 seeders     Added 2013-04-18 10:02:37

Stream torrent
Starting‥ You need BitLord! Get it from 1BitLord.com
To download or stream you need BitLord. Visit them at BitLord.com
-
 
http://www.Speed. Cd       the fast  and The Hottest Private Tracker on the net 
http://www.Speed. Cd

Please Seed back to make the speed Faster!!
 ............ NFO .............
-
 
http://www.Speed. Cd[img]image[/img]
[img]image[/img]


Genre:Action | Crime | Thriller
Language:English
IMDb:[url]http://www.imdb.com/title/tt0790724/[/url]
Source:1080p.BluRay.X264-AMIABLE Thanks
Encoder:Tony


Format                                   : AVI
Format/Info                              : Audio Video Interleave
File size                                : 1.32 GiB
Duration                                 : 2h 10mn
Overall bit rate                         : 1 449 Kbps

Video
ID                                       : 0
Format                                   : MPEG-4 Visual
Format profile                           : Advanced Simple@L5
Format settings, BVOP                    : 1
Format settings, QPel                    : No
Format settings, GMC                     : No warppoints
Format settings, Matrix                  : Default (H.263)
Codec ID                                 : XVID
Codec ID/Hint                            : XviD
Duration                                 : 2h 10mn
Bit rate                                 : 1 056 Kbps
Width                                    : 640 pixels
Height                                   : 272 pixels
Display aspect ratio                     : 2.35:1
Frame rate                               : 23.976 fps
Color space                              : YUV
Chroma subsampling                       : 4:2:0
Bit depth                                : 8 bits
Scan type                                : Progressive
Compression mode                         : Lossy
Bits/(Pixel*Frame)                       : 0.253
Stream size                              : 985 MiB (73%)
Writing library                          : XviD 1.2.1 (UTC 2008-12-04)

Audio
ID                                       : 1
Format                                   : AC-3
Format/Info                              : Audio Coding 3
Mode extension                           : CM (complete main)
Codec ID                                 : 2000
Duration                                 : 2h 10mn
Bit rate mode                            : Constant
Bit rate                                 : 384 Kbps
Channel(s)                               : 6 channels
Channel positions                        : Front: L C R, Side: L R, LFE
Sampling rate                            : 48.0 KHz
Bit depth                                : 16 bits
Compression mode                         : Lossy
Stream size                              : 358 MiB (26%)
Alignment                                : Aligned on interleaves
Interleave, duration                     : 42 ms (1.00 video frame)
Interleave, preload duration             : 512 ms

   
Plot:
  A homicide investigator digs deeper into a case involving a trained military sniper who shot five random victims. 

TRAILER:



Greets:
 CRYS,MiNiSTRY,INSPiRAL,IMAGINE,LKRG,ADTRG,FXG,3Li,FLAWL3SS,CrEwSaDe,TA,iLLUSiON,EMBER,HOPE,GooN,BBnRG,NOGRP,ETRG,BHRG,iLLUMiNATi,MiSTERE.ViSiON,DTRG SAFCuk009,LU,TheFalcon007,MYSTiC,PrisM,Noir,WBZ,LAP,Rx,Kingdom,SAFCuk009+Fabreezy,HDLiTE,TWiZTED,ETRG.ELEKTRI4KA,MAGNAT,CM8
                And to all the other p2p grps past and present		
[ www.Speed.Cd ] - Jack.Reacher.2012.BRRip.XviD.Ac3.Feel-Free/Jack.Reacher.2012.BRRip.XviD.Ac3.Feel-Free.avi 1.417 GB
[ www.Speed.Cd ] - Jack.Reacher.2012.BRRip.XviD.Ac3.Feel-Free/Jack.Reacher.2012.BRRip.XviD.Ac3.Feel-Free.nfo 3.357 KB
[ www.Speed.Cd ] - Jack.Reacher.2012.BRRip.XviD.Ac3.Feel-Free/vlcsnap-2013-04-18-05h29m00s77.png 225.034 KB
Gathering some info...

Register and log in Isohunt and see no captcha anymore!

4000 symbols left
Hash a81536319e53fa76e1e8929b8518763d87eeeac0

Related torrents for "[ www.Speed.Cd ] - Jack.Reacher.2012.BRRip.XviD.Ac3.Feel-Free"

Torrent search:

2012 bd