Mr & Mrs 55 [TMB] Verified

Size 1.117 GB   0 seeders     Added 2013-04-18 10:31:49

Stream torrent
Startingā€„ You need BitLord! Get it from BitLord.com
To download or stream you need BitLord. Visit them at BitLord.com
 image 
image 
image 
image 
image 
image

Info - 
Plot - 
Preetam (Guru Dutt), a struggling cartoonist, meets Anita (Madhubala) at a tennis match, where she is watching her favorite tennis star. Anita, a wealthy and westernized heiress is controlled by her feminist aunt, Sita Devi (Lalita Pawar). Sita is suspicious of men, and cultivates her attitudes in Anita. However, to receive her fortune, her father's will decrees that Anita must marry within one month of turning 21. Sita Devi doesn't agree with this, and tries to set Anita up with a sham marriage which will soon lead to divorce, thereby giving her both freedom and a fortune. Sita hires Preetam to marry Anita, but doesn't know that the pair have already met. Preetam is kept from Anita after their marriage, but he kidnaps her and takes her to the traditional house of his brother.

While at the house, Anita befriends Preetam's sister-in-law, and begins to see the merit in becoming a traditional Indian wife. Preetam is worried that he has lost Anita, and expedites their divorce by providing false, incrimiating evidence to the court. Preetam then leaves Mumbai, heartbroken. Anita now recognizes her feelings for Preetam and rushes to meet him at the airport. In the end, the couple is reunited.

Cast - 
    Guru Dutt as Preetam Kumar
    Madhubala as Anita Verma
    Lalita Pawar as Seeta Devi (Anita's Aunt)
    Johnny Walker as Johny
    Yasmin (Vinita Bhatt)
    Kumkum as Preetam's Bhabhi
    Tun Tun as Lily D'Silva (as Uma Devi)
    Cuckoo as Singer (in song "Neele Aasmani")
    Agha
    Bir Sakuja as Mr. Sharma (as Bir Sakhuja)
    Moni Chatterjee as The Judge (as Moni Chatterji)
    C.S. Dubey as Doctor
    Jagdeep as Paper Boy


Media Info - 
Video
Format                         : AVC
Format/Info                    : Advanced Video Codec
Format profile                 : Main@L3.0
Format settings, CABAC         : Yes
Format settings, ReFrames      : 4 frames
Codec ID                       : avc1
Codec ID/Info                  : Advanced Video Coding
Duration                       : 2h 24mn
Bit rate mode                  : Variable
Bit rate                       : 861 Kbps
Width                          : 854 pixels
Height                         : 480 pixels
Display aspect ratio           : 16:9
Frame rate mode                : Constant
Frame rate                     : 25.000 fps
Color space                    : YUV
Chroma subsampling             : 4:2:0
Bit depth                      : 8 bits
Scan type                      : Progressive
Bits/(Pixel*Frame)             : 0.084
Stream size                    : 888 MiB (84%)
Writing library                : x264 core 120

Audio
Format                         : AAC
Format/Info                    : Advanced Audio Codec
Format profile                 : LC
Codec ID                       : 40
Duration                       : 2h 24mn
Bit rate mode                  : Variable
Bit rate                       : 160 Kbps
Maximum bit rate               : 306 Kbps
Channel(s)                     : 2 channels
Channel positions              : Front: L R
Sampling rate                  : 44.1 KHz
Compression mode               : Lossy
Delay relative to video        : 80ms
Stream size                    : 165 MiB (16%)

[B]Sample in Torrent ;)[/B]

Ripper : Saket

Seeding 24x7... Extreme Seeding...


Enjoy!
		
Mr & Mrs 55 [TMB]/Mr.& Mrs.55 1955 x264 [TMB].mp4 1.108 GB
Mr & Mrs 55 [TMB]/Mr.& Mrs.55 1955 x264 [TMB]_sample.mp4 8.244 MB
Gathering some info...

Register and log in Isohunt and see no captcha anymore!

4000 symbols left
Hash ea7a6bcb2d2fb0fe5a552769234c39468f1f7a4e