Calvin Harris - I Need Your Love ft. Ellie Goulding 1080p ESubs-ViVeKRaNa (PimpRG) Verified

Size 59.686 MB   0 seeders     Added 2013-04-18 15:02:35

Stream torrent
Starting‥ You need BitLord! Get it from BitLord.com
To download or stream you need BitLord. Visit them at BitLord.com
 image

 
image


 
image



[code]General
Complete name                            :Calvin Harris - I Need Your Love ft. Ellie Goulding.mp4
Format                                   : MPEG-4
Format profile                           : Base Media / Version 2
Codec ID                                 : mp42
File size                                : 56.9 MiB
Duration                                 : 3mn 46s
Overall bit rate mode                    : Variable
Overall bit rate                         : 2 104 Kbps
Encoded date                             : UTC 2013-04-18 05:39:13
Tagged date                              : UTC 2013-04-18 05:47:40
Writing application                      : HandBrake 0.9.8 2012071700

Video
ID                                       : 1
Format                                   : AVC
Format/Info                              : Advanced Video Codec
Format profile                           : Main@L4.0
Format settings, CABAC                   : Yes
Format settings, ReFrames                : 4 frames
Codec ID                                 : avc1
Codec ID/Info                            : Advanced Video Coding
Duration                                 : 3mn 46s
Bit rate mode                            : Variable
Bit rate                                 : 2 000 Kbps
Width                                    : 1 920 pixels
Height                                   : 1 080 pixels
Display aspect ratio                     : 16:9
Frame rate mode                          : Constant
Frame rate                               : 25.000 fps
Color space                              : YUV
Chroma subsampling                       : 4:2:0
Bit depth                                : 8 bits
Scan type                                : Progressive
Bits/(Pixel*Frame)                       : 0.039
Stream size                              : 54.3 MiB (95%)
Writing library                          : x264 core 120
Encoded date                             : UTC 2013-04-18 05:39:13
Tagged date                              : UTC 2013-04-18 05:47:39
Color primaries                          : BT.709
Transfer characteristics                 : BT.709
Matrix coefficients                      : BT.709

Audio
ID                                       : 2
Format                                   : AAC
Format/Info                              : Advanced Audio Codec
Format profile                           : LC
Codec ID                                 : 40
Duration                                 : 3mn 46s
Bit rate mode                            : Variable
Bit rate                                 : 96.0 Kbps
Maximum bit rate                         : 150 Kbps
Channel(s)                               : 2 channels
Channel positions                        : Front: L R
Sampling rate                            : 44.1 KHz
Compression mode                         : Lossy
Delay relative to video                  : 80ms
Stream size                              : 2.57 MiB (5%)
Encoded date                             : UTC 2013-04-18 05:39:13
Tagged date                              : UTC 2013-04-18 05:47:38

[/code]



		
Calvin Harris - I Need Your Love ft. Ellie Goulding 1080p ESubs-ViVeKRaNa (PimpRG)/Calvin Harris - I Need Your Love ft. Ellie Goulding 1080p ESubs-ViVeKRaNa.mp4 59.68 MB
Calvin Harris - I Need Your Love ft. Ellie Goulding 1080p ESubs-ViVeKRaNa (PimpRG)/Calvin Harris - I Need Your Love ft. Ellie Goulding 1080p ESubs-ViVeKRaNa.ass 5.274 KB
Calvin Harris - I Need Your Love ft. Ellie Goulding 1080p ESubs-ViVeKRaNa (PimpRG)/TORRENTS SITE INFO/Torrent Downloaded From ExtraTorrent.com.txt 353 B
Gathering some info...

Register and log in Isohunt and see no captcha anymore!

4000 symbols left
Hash 5f9324d51e20ed0b89958f3431b8094ae5a3cb27

Related torrents for "Calvin Harris - I Need Your Love ft. Ellie Goulding 1080p ESubs-ViVeKRaNa (PimpRG)"