imdb
rating

7.5
Equilibrium

Equilibrium (2002)

Action, Drama, Science Fiction, Thriller

Full description
quality   dvdrip dvdr x264 fullhd bd hdtv hd

Equilibrium.2002.DVDRip.SweSub.Xvid Verified

Size 732.926 MB   0 seeders     Added 2013-04-18 15:16:36

Stream torrent
Starting‥ You need BitLord! Get it from 1BitLord.com
To download or stream you need BitLord. Visit them at BitLord.com

                          Swedish Hardsub

 
http://www.imdb.com/title/tt0238380/


General
Complete name                       : Equilibrium.2002.DVDRip.SweSub.Xvid.avi
Format                              : AVI
Format/Info                         : Audio Video Interleave
File size                           : 699 MiB
Duration                            : 1h 42mn


Video
ID                                  : 0
Format                              : MPEG-4 Visual
Format profile                      : Advanced Simple@L5
Format settings, BVOP               : 2
Format settings, QPel               : No
Format settings, GMC                : No warppoints
Format settings, Matrix             : Default (H.263)
Codec ID                            : XVID
Codec ID/Hint                       : XviD
Duration                            : 1h 42mn
Bit rate                            : 813 Kbps
Width                               : 720 pixels
Height                              : 304 pixels
Display aspect ratio                : 2.35:1
Frame rate                          : 25.000 fps
Color space                         : YUV
Chroma subsampling                  : 4:2:0
Bit depth                           : 8 bits
Scan type                           : Progressive
Compression mode                    : Lossy
Bits/(Pixel*Frame)                  : 0.149
Stream size                         : 597 MiB (85%)
Writing library                     : XviD 73

Audio
ID                                  : 1
Format                              : MPEG Audio
Format version                      : Version 1
Format profile                      : Layer 3
Mode                                : Joint stereo
Mode extension                      : MS Stereo
Codec ID                            : 55
Codec ID/Hint                       : MP3
Duration                            : 1h 42mn
Bit rate mode                       : Variable
Bit rate                            : 128 Kbps
Channel(s)                          : 2 channels
Sampling rate                       : 48.0 KHz
Compression mode                    : Lossy
Stream size                         : 92.7 MiB (13%)
Alignment                           : Aligned on interleaves
Interleave, duration                : 24 ms (0.60 video frame)
Interleave, preload duration        : 145 ms
Writing library                     : LAME3.90.
Encoding settings                   : -m j -V 4 -q 2 -lowpass 17.6 --abr 128

		
Equilibrium.2002.DVDRip.SweSub.Xvid/Equilibrium.2002.DVDRip.SweSub.Xvid.avi 732.924 MB
Equilibrium.2002.DVDRip.SweSub.Xvid/Equilibrium.2002.DVDRip.SweSub.Xvid.avi - MediaInfo.log 2.511 KB
Gathering some info...

Register and log in Isohunt and see no captcha anymore!

4000 symbols left
Hash 5df3aa1cbc69d3c20e74dd6bec1d525964c90776

Related torrents for "Equilibrium.2002.DVDRip.SweSub.Xvid"

Torrent search:

dvdrip 2002