WWE.Main.Event.2013.04.17.HDTV.x264-WD_wrestlingforum.info.mp4

Size 457.626 MB   0 seeders     Added 2013-04-18 15:23:35

Stream torrent
Starting‥ You need BitLord! Get it from BitLord.com
To download or stream you need BitLord. Visit them at BitLord.com
WWE.Main.Event.2013.04.17.HDTV.x264-WD
 Format : MPEG-4
 Website : Wrestling Desires    http://wrestlingforum.info/   
 Format profile : Base Media
 Codec ID : isom
 File size : 436 MiB
 Duration : 43mn 30s
 Overall bit rate mode : Variable
 Overall bit rate : 1 403 Kbps
 Encoded date : UTC 2013-04-18 01:58:09
 Tagged date : UTC 2013-04-18 01:58:09
 Video
 ID : 1
 Format : AVC
 Format/Info : Advanced Video Codec
 Format profile : High@L3.1
 Format settings, CABAC : Yes
 Format settings, ReFrames : 3 frames
 Codec ID : avc1
 Codec ID/Info : Advanced Video Coding
 Duration : 43mn 30s
 Bit rate mode : Variable
 Bit rate : 1 270 Kbps
 Maximum bit rate : 1 500 Kbps
 Width : 720 pixels
 Height : 406 pixels
 Display aspect ratio : 16:9
 Frame rate mode : Constant
 Frame rate : 29.970 fps
 Color space : YUV
 Chroma subsampling : 4:2:0
 Bit depth : 8 bits
 Scan type : Progressive
 Bits/(Pixel*Frame) : 0.145
 Stream size : 395 MiB (91%)
 Title : me
 Writing library : x264 core 130 r2273 b3065e6
 Encoding settings : cabac=1 / ref=3 / deblock=1:0:0 / analyse=0x3:0x113 / me=hex / subme=7 / psy=1 / psy_rd=1.00:0.00 / mixed_ref=1 / me_range=16 / chroma_me=1 / trellis=1 / 8x8dct=1 / cqm=0 / deadzone=21,11 / fast_pskip=1 / chroma_qp_offset=-2 / threads=9 / lookahead_threads=1 / sliced_threads=0 / nr=0 / decimate=1 / interlaced=0 / bluray_compat=0 / constrained_intra=0 / bframes=3 / b_pyramid=0 / b_adapt=1 / b_bias=0 / direct=1 / weightb=1 / open_gop=0 / weightp=2 / keyint=300 / keyint_min=30 / scenecut=40 / intra_refresh=0 / rc_lookahead=40 / rc=crf / mbtree=1 / crf=23.0 / qcomp=0.60 / qpmin=0 / qpmax=69 / qpstep=4 / vbv_maxrate=1500 / vbv_bufsize=1450 / crf_max=0.0 / nal_hrd=vbr / ip_ratio=1.40 / aq=1:1.00
 Encoded date : UTC 2013-04-18 01:58:09
 Tagged date : UTC 2013-04-18 01:58:28
 Audio
 ID : 2
 Format : AAC
 Format/Info : Advanced Audio Codec
 Format profile : LC
 Codec ID : 40
 Duration : 43mn 30s
 Bit rate mode : Variable
 Bit rate : 128 Kbps
 Maximum bit rate : 134 Kbps
 Channel(s) : 2 channels
 Channel positions : Front: L R
 Sampling rate : 48.0 KHz
 Compression mode : Lossy
 Stream size : 39.8 MiB (9%)
 Language : English
 Encoded date : UTC 2013-04-18 01:58:25
 Tagged date : UTC 2013-04-18 01:58:28		
WWE.Main.Event.2013.04.17.HDTV.x264-WD_wrestlingforum.info.mp4 457.626 MB
Gathering some info...

Register and log in Isohunt and see no captcha anymore!

4000 symbols left
Hash 9892a0f7880bcf7a3d952ead719a60d0237eb7ed

Related torrents for "WWE.Main.Event.2013.04.17.HDTV.x264-WD_wrestlingforum.info.mp4"

Torrent search:

x264 hdtv 2013