imdb
rating

5.8
The Guilt Trip

The Guilt Trip (2012)

Comedy

Full description
quality   x264 hd bd dvdrip h264 screener hdtv

[ www.Speed.Cd ] - The Guilt Trip (2012) BRRip XviD-MeRCuRY Verified

Size 732.683 MB   0 seeders     Added 2013-04-18 19:17:41

Stream torrent
Starting‥ You need BitLord! Get it from BitLord.com
To download or stream you need BitLord. Visit them at BitLord.com
-
 
http://www.Speed. Cd       the fast  and The Hottest Private Tracker on the net 
http://www.Speed. Cd

Please Seed back to make the speed Faster!!
 ............ NFO .............
-
 
http://www.Speed. CdGeneral
Complete name                    : C:UsersAdministratorDesktopBeyazHDLBRRRipThe Guilt Trip (2012) BRRip XviD-MeRCuRYThe Guilt Trip (2012) BRRip XviD-MeRCuRY.avi
Format                           : AVI
Format/Info                      : Audio Video Interleave
File size                        : 698 MiB
Duration                         : 1h 35mn
Overall bit rate                 : 1 021 Kbps

Video
ID                               : 0
Format                           : MPEG-4 Visual
Format profile                   : Advanced Simple@L5
Format settings, BVOP            : 2
Format settings, QPel            : No
Format settings, GMC             : No warppoints
Format settings, Matrix          : Default (H.263)
Codec ID                         : XVID
Codec ID/Hint                    : XviD
Duration                         : 1h 35mn
Bit rate                         : 887 Kbps
Width                            : 640 pixels
Height                           : 272 pixels
Display aspect ratio             : 2.35:1
Frame rate                       : 23.976 fps
Color space                      : YUV
Chroma subsampling               : 4:2:0
Bit depth                        : 8 bits
Scan type                        : Progressive
Compression mode                 : Lossy
Bits/(Pixel*Frame)               : 0.213
Stream size                      : 607 MiB (87%)
Writing library                  : XviD 1.2.1 (UTC 2008-12-04)

Audio
ID                               : 1
Format                           : MPEG Audio
Format version                   : Version 1
Format profile                   : Layer 3
Mode                             : Joint stereo
Mode extension                   : MS Stereo
Codec ID                         : 55
Codec ID/Hint                    : MP3
Duration                         : 1h 35mn
Bit rate mode                    : Constant
Bit rate                         : 128 Kbps
Channel(s)                       : 2 channels
Sampling rate                    : 48.0 KHz
Compression mode                 : Lossy
Stream size                      : 87.5 MiB (13%)
Alignment                        : Aligned on interleaves
Interleave, duration             : 167 ms (4.00 video frames)
Interleave, preload duration     : 216 ms
Title                            : the.guilt.trip.720p.bluray.x264-sparks
Writing library                  : LAME3.99r
Encoding settings                : -m j -V 4 -q 2 -lowpass 17 -b 128		
[ www.Speed.Cd ] - The Guilt Trip (2012) BRRip XviD-MeRCuRY/01.png 130.591 KB
[ www.Speed.Cd ] - The Guilt Trip (2012) BRRip XviD-MeRCuRY/02.png 194.292 KB
[ www.Speed.Cd ] - The Guilt Trip (2012) BRRip XviD-MeRCuRY/03.png 208.62 KB
Gathering some info...

Register and log in Isohunt and see no captcha anymore!

4000 symbols left
Hash 02d1f10205abca53bf24289dee8202875d74e25e

Related torrents for "[ www.Speed.Cd ] - The Guilt Trip (2012) BRRip XviD-MeRCuRY"

Torrent search:

2012 bd