imdb
rating

7.8
Porco Rosso

Porco Rosso (1992)

Animation

Full description
quality   dvdrip x264 hd bd fullhd

Porco Rosso [Kurenai No Buta][1992] ReRip DVDRip XviD - CODY

Size 1.077 GB   11 seeders     Added 2013-04-18 20:16:34

Stream torrent
Starting‥ You need BitLord! Get it from BitLord.com
To download or stream you need BitLord. Visit them at BitLord.com
General
Complete name                            : Porco Rosso [Kurenai No Buta][1992] ReRip DVDRip XviD - CODY.avi
Format                                   : AVI
Format/Info                              : Audio Video Interleave
File size                                : 1.00 GiB
Duration                                 : 1h 29mn
Overall bit rate                         : 1 600 Kbps
Writing application                      : VirtualDubMod 1.5.10.3 | www.virtualdub-fr.org || (build 2550/release)
Writing library                          : VirtualDubMod build 2550/release

Video
ID                                       : 0
Format                                   : MPEG-4 Visual
Format profile                           : Advanced Simple@L5
Format settings, BVOP                    : 4
Format settings, QPel                    : No
Format settings, GMC                     : No warppoints
Format settings, Matrix                  : Default (H.263)
Muxing mode                              : Packed bitstream
Codec ID                                 : XVID
Codec ID/Hint                            : XviD
Duration                                 : 1h 29mn
Bit rate                                 : 1 462 Kbps
Width                                    : 720 pixels
Height                                   : 392 pixels
Display aspect ratio                     : 1.851
Frame rate                               : 25.000 fps
Color space                              : YUV
Chroma subsampling                       : 4:2:0
Bit depth                                : 8 bits
Scan type                                : Progressive
Compression mode                         : Lossy
Bits/(Pixel*Frame)                       : 0.207
Stream size                              : 936 MiB (91%)
Writing library                          : XviD 65

Audio
ID                                       : 1
Format                                   : MPEG Audio
Format version                           : Version 1
Format profile                           : Layer 3
Codec ID                                 : 55
Codec ID/Hint                            : MP3
Duration                                 : 1h 29mn
Bit rate mode                            : Constant
Bit rate                                 : 128 Kbps
Channel(s)                               : 2 channels
Sampling rate                            : 48.0 KHz
Compression mode                         : Lossy
Stream size                              : 82.0 MiB (8%)
Alignment                                : Aligned on interleaves
Interleave, duration                     : 40 ms (1.00 video frame)
Interleave, preload duration             : 504 ms
Writing library                          : LAME3.99r
Encoding settings                        : -m s -V 4 -q 2 -lowpass 17 -b 128

Audio language                           : Japanese

IMDB link:                                 http://www.imdb.com/title/tt0104652/

Subtitles included                       : English, Romanian

Please seed at least 1,5:1 . This way this torrent has a chance to survive !

Thanks . Enjoy !! 
		
Porco Rosso [Kurenai No Buta][1992] ReRip DVDRip XviD - CODY/Cover.Jpg 2.632 MB
Porco Rosso [Kurenai No Buta][1992] ReRip DVDRip XviD - CODY/Info_by_Cody.txt 5.75 KB
Porco Rosso [Kurenai No Buta][1992] ReRip DVDRip XviD - CODY/Porco Rosso [Kurenai No Buta][1992] ReRip DVDRip XviD - CODY.avi 1.074 GB
Gathering some info...

Register and log in Isohunt and see no captcha anymore!

4000 symbols left
Hash 919166cbd9b24f3ad887e8cd368a000d52a61eee

Related torrents for "Porco Rosso [Kurenai No Buta][1992] ReRip DVDRip XviD - CODY"

Torrent search:

dvdrip 1992