Kids

Kids (1979)

Drama

Full description

Alibaba Aani Chalis Chor - x264 - Animation - Kids [TMB].mp4

Size 73.016 MB   0 seeders     Added 2013-04-18 21:31:40

Stream torrent
Starting‥ You need BitLord! Get it from BitLord.com
To download or stream you need BitLord. Visit them at BitLord.com
 image 
image 
image 
image 
image

Media Info - 
Video
Format                         : AVC
Format/Info                    : Advanced Video Codec
Format profile                 : Main@L2.1
Format settings, CABAC         : Yes
Format settings, ReFrames      : 4 frames
Codec ID                       : avc1
Codec ID/Info                  : Advanced Video Coding
Duration                       : 28mn 11s
Bit rate mode                  : Variable
Bit rate                       : 199 Kbps
Width                          : 474 pixels
Height                         : 236 pixels
Display aspect ratio           : 2.008
Frame rate mode                : Constant
Frame rate                     : 25.000 fps
Color space                    : YUV
Chroma subsampling             : 4:2:0
Bit depth                      : 8 bits
Scan type                      : Progressive
Bits/(Pixel*Frame)             : 0.071
Stream size                    : 40.2 MiB (58%)
Writing library                : x264 core 120

Audio
Format                         : AAC
Format/Info                    : Advanced Audio Codec
Format profile                 : LC
Codec ID                       : 40
Duration                       : 28mn 11s
Bit rate mode                  : Variable
Bit rate                       : 144 Kbps
Maximum bit rate               : 213 Kbps
Channel(s)                     : 2 channels
Channel positions              : Front: L R
Sampling rate                  : 44.1 KHz
Compression mode               : Lossy
Delay relative to video        : 80ms
Stream size                    : 28.6 MiB (41%)

Ripper : Saket

Seeding 24x7... Extreme Seeding...


Enjoy!
		
Alibaba Aani Chalis Chor - x264 - Animation - Kids [TMB].mp4 73.016 MB
Gathering some info...

Register and log in Isohunt and see no captcha anymore!

4000 symbols left
Hash 230dca9adc9f028e0dc3e032508039391c2e2cc7

Related torrents for "Alibaba Aani Chalis Chor - x264 - Animation - Kids [TMB].mp4"

Torrent search:

x264