imdb
rating

7.0
Jack Reacher

Jack Reacher (2012)

Crime, Drama, Thriller

Full description
quality   telesync dvdrip dvd x264 hd bd

Jack Reacher (2012) BRRip XviD-MeRCuRY

Size 1.476 GB   0 seeders     Added 2013-04-18 23:02:36

Stream torrent
Starting‥ You need BitLord! Get it from BitLord.com
To download or stream you need BitLord. Visit them at BitLord.com
	General
Complete name: C:\Users\Administrator\Desktop\Beyaz\HDL\BRRRip\Jack Reacher (2012) BRRip XviD-MeRCuRY\Jack Reacher (2012) BRRip XviD-MeRCuRY.avi
Format: AVI
Format/Info: Audio Video Interleave
File size: 1.37 GiB
Duration: 2h 10mn
Overall bit rate: 1 508 Kbps

Video
ID: 0
Format: MPEG-4 Visual
Format profile: Advanced Simple@L5
Format settings, BVOP: 2
Format settings, QPel: No
Format settings, GMC: No warppoints
Format settings, Matrix: Default (H.263)
Codec ID: XVID
Codec ID/Hint: XviD
Duration: 2h 10mn
Bit rate: 1 374 Kbps
Width: 640 pixels
Height: 272 pixels
Display aspect ratio: 2.35:1
Frame rate: 23.976 fps
Color space: YUV
Chroma subsampling: 4:2:0
Bit depth: 8 bits
Scan type: Progressive
Compression mode: Lossy
Bits/(Pixel*Frame): 0.329
Stream size: 1.25 GiB (91%)
Writing library: XviD 1.2.1 (UTC 2008-12-04)

Audio
ID: 1
Format: MPEG Audio
Format version: Version 1
Format profile: Layer 3
Mode: Joint stereo
Mode extension: MS Stereo
Codec ID: 55
Codec ID/Hint: MP3
Duration: 2h 10mn
Bit rate mode: Constant
Bit rate: 128 Kbps
Channel(s): 2 channels
Sampling rate: 48.0 KHz
Compression mode: Lossy
Stream size: 119 MiB (8%)
Alignment: Aligned on interleaves
Interleave, duration: 167 ms (4.00 video frames)
Interleave, preload duration: 216 ms
Title: Jack.Reacher.2012.720p.BluRay.X264-AMIABLE
Writing library: LAME3.99r
Encoding settings: -m j -V 4 -q 2 -lowpass 17 -b 128
		
Jack Reacher (2012) BRRip XviD-MeRCuRY/07.png 125.732 KB
Jack Reacher (2012) BRRip XviD-MeRCuRY/Jack Reacher (2012) BRRip XviD-MeRCuRY.avi 1.475 GB
Jack Reacher (2012) BRRip XviD-MeRCuRY/Jack Reacher (2012) BRRip XviD-MeRCuRY.nfo 2.507 KB
Gathering some info...

Register and log in Isohunt and see no captcha anymore!

4000 symbols left
Hash 9c522201e4fe2bba113f8944600698e0aa20f661

Related torrents for "Jack Reacher (2012) BRRip XviD-MeRCuRY"

Torrent search:

2012 bd