imdb
rating

5.9
The Host

The Host (2013)

Action, Adventure, Science Fiction, Thriller, Romance

Full description

the host millenium

Size 2.144 GB   0 seeders     Added 2013-04-19 07:16:34

Stream torrent
Starting‥ You need BitLord! Get it from 1BitLord.com
To download or stream you need BitLord. Visit them at BitLord.com
Cover:
 
image

==================================================================================

The.Host.2013.Webrip Xvid Ac3 5.1-MiLLENiUM

Source : The.Host.2013.720p.KOR.HDRip.H-KTH [thanks]
Format : AVI
Format/Info : Audio Video Interleave
File size : 1.96 GiB
Duration : 2h 10mn
Overall bit rate : 2 152 Kbps
Writing application : VirtualDubMod 1.5.10.2 (build 2540/release)
Writing library : VirtualDubMod build 2540/release

==================================================================================

Video
ID : 0
Format : MPEG-4 Visual
Format profile : Advanced Simple@L5
Format settings, BVOP : 2
Format settings, QPel : No
Format settings, GMC : No warppoints
Format settings, Matrix : Default (H.263)
Muxing mode : Packed bitstream
Codec ID : XVID
Codec ID/Hint : XviD
Duration : 2h 10mn
Bit rate : 1 692 Kbps
Width : 720 pixels
Height : 278 pixels
Display aspect ratio : 2.590
Frame rate : 29.970 fps
Color space : YUV
Chroma subsampling : 4:2:0
Bit depth : 8 bits
Scan type : Progressive
Compression mode : Lossy
Bits/(Pixel*Frame) : 0.282
Stream size : 1.54 GiB (79%)
Writing library : XviD 1.2.1 (UTC 2008-12-04)

==================================================================================

Audio
ID : 1
Format : AC-3
Format/Info : Audio Coding 3
Mode extension : CM (complete main)
Codec ID : 2000
Duration : 2h 10mn
Bit rate mode : Constant
Bit rate : 448 Kbps
Channel(s) : 6 channels
Channel positions : Front: L C R, Side: L R, LFE
Sampling rate : 48.0 KHz
Bit depth : 16 bits
Compression mode : Lossy
Delay relative to video : 21ms
Stream size : 418 MiB (21%)
Alignment : Split accross interleaves
Interleave, duration : 33 ms (1.00 video frame)
Interleave, preload duration : 500 ms

==================================================================================

Cast:

Saoirse Ronan, Diane Kruger, Max Irons

Plot:

When an unseen enemy threatens mankind by taking over their bodies and erasing
their memories, Melanie will risk everything to protect the people she cares
most about, proving that love can conquer all in a dangerous new world. 

IMDb:
 
http://www.imdb.co.uk/title/tt1517260/

Notes:

cropped subs, alterd a/r, gamma, hue, saturation, brightness and contrast and sharpend up,
reworked audio to 6 channel in soundforge, mixed back down in vegas then muxed back to vid.
enjoy :)

==================================================================================

Screens :
 
image
 
image
 
image
 
image
 
image
 
image
 
image
 
image
 
image
 
image


GREETZ TO ALL
RESPECT TO ALL		
the host millenium//thephoenix.name.txt 498 B
the host millenium//sample.avi 37.03 MB
the host millenium//Torrent Downloaded From ExtraTorrent.com.txt 353 B
Gathering some info...

Register and log in Isohunt and see no captcha anymore!

4000 symbols left
Hash 484925d099c302ed7a411b6ee9d8d981f7e6b306

Related torrents for "the host millenium"

Torrent search:

2013